.
Авторизация | Регистрация
Хочешь лучшие торренты? Добавь свой email!
Добавить

Торрент скачать бесплатно

» » Флэш / The Flash (2014) WEB-DL [H.264 / 1080p-LQ] (сезон 1, серии 1-17 из 23) (NewStudio) (обновляемая) скачать через торрент бесплатно




    Флэш / The Flash (2014) WEB-DL [H.264 / 1080p-LQ] (сезон 1, серии 1-17 из 23) (NewStudio) (обновляемая) скачать через торрент бесплатно

    Опубликовал: Админ | Дата: 8-04-2015, 04:00 | Просмотров: 107

    Производство: США
    Жанр: фантастика, фэнтези, боевик, приключения
    Режиссер: Дэвид Наттер

    Актеры
    Томас Кэвэна, Фульвио Чечере, Рик Коснетт, Грант Гастин, Мишель Харрисон, Мэттью Роберт Келли, Дженнифер Китчен, Нельсон Картер Лейс, Роуэн Лонгуорт, Джесси Л. Мартин и др.

    Описание

    Когда Барри Аллен был маленьким, больше всего на свете ему хотелось быть супергероем — тем, кто превосходит лимиты человеческого организма и чаще всего использует во благо данную ему силу. Когда Барри было одиннадцать лет, он на собственном опыте узнал, что люди с необычными способностями действительно существуют: его мать была убита одним из таких людей. Повзрослев и став судмедэкспертом, Барри не отбросил мыслей о сверхлюдях и продолжал искать доказательства их существования, что не лучшим образом сказывалось на его репутации и общении с коллегами. Впрочем, однажды его усилия были вознаграждены…

    Дата мировой премьеры: 7 октября 2014
    Продолжительность: ~00: 44: 00 серия
    Качество видео: WEB-DL
    Перевод: Многоголосый закадровый, профессиональный -NewStudio
    Автор перевода: Александра Цернант
    Видеокодек: AVC/H.264
    Битрейт видео: ~ 5000 Кбит/сек
    Размер кадра: 1916x1076
    Аудио #1 Rus: AC-3, 6 каналов, 48, 0 КГц, 448/384 Кбит/сек - многоголосый закадровый
    Аудио #2 Eng: AC-3, 6 каналов, 48, 0 КГц, 384 Кбит/сек - оригинал
    Код:

    General
    Unique ID : 247982553016079429515776990279604838864 (0xBA8FB3D405403E3890E90D7E291321D0)
    Complete name : D:Фильмы (торент)The Flash s01The.Flash.s01e01.WEBDL.1080p.NewStudio.TV.mkv
    Format : Matroska
    Format version : Version 2
    File size : 1.85 GiB
    Duration : 44mn 33s
    Overall bit rate : 5 944 Kbps
    Encoded date : UTC 2014-11-07 19:51:46
    Writing application : mkvmerge v2.9.9 (\'Tutu\') built on Nov 25 2009 21:13:32
    Writing library : libebml v0.7.9 + libmatroska v0.8.1
    Video
    ID : 1
    Format : AVC
    Format/Info : Advanced Video Codec
    Format profile :High@L4.0
    Format settings, CABAC : Yes
    Format settings, ReFrames : 4 frames
    Codec ID : V_MPEG4/ISO/AVC
    Duration : 44mn 33s
    Bit rate : 4 994 Kbps
    Width : 1 916 pixels
    Height : 1 076 pixels
    Display aspect ratio : 16:9
    Frame rate mode : Constant
    Frame rate : 23.976 fps
    Color space : YUV
    Chroma subsampling : 4:2:0
    Bit depth : 8 bits
    Scan type : Progressive
    Bits/(Pixel*Frame) : 0.101
    Stream size : 1.55 GiB (84%)
    Title : H.264
    Default : No
    Forced : No
    Color primaries : BT.709
    Transfer characteristics : BT.709
    Matrix coefficients : BT.709
    Audio #1
    ID : 2
    Format : AC-3
    Format/Info : Audio Coding 3
    Mode extension : CM (complete main)
    Format settings, Endianness : Big
    Codec ID : A_AC3
    Duration : 44mn 33s
    Bit rate mode : Constant
    Bit rate : 448 Kbps
    Channel count : 6 channels
    Channel positions : Front: L C R, Side: L R, LFE
    Sampling rate : 48.0 KHz
    Bit depth : 16 bits
    Compression mode : Lossy
    Stream size : 143 MiB (8%)
    Language : Russian
    Default : Yes
    Forced : Yes
    Audio #2
    ID : 3
    Format : AC-3
    Format/Info : Audio Coding 3
    Mode extension : CM (complete main)
    Format settings, Endianness : Big
    Codec ID : A_AC3
    Duration : 44mn 33s
    Bit rate mode : Constant
    Bit rate : 384 Kbps
    Channel count : 6 channels
    Channel positions : Front: L C R, Side: L R, LFE
    Sampling rate : 48.0 KHz
    Bit depth : 16 bits
    Compression mode : Lossy
    Stream size : 122 MiB (6%)
    Title : DD5.1
    Language : English
    Default : No
    Forced : No


    Скриншоты для ознакомления




    Онлайн видео Флэш



    Флэш/The Flash (2014) WEB-DL [H.264/1080p-LQ] (сезон 1, серии 1-17 из 23) (NewStudio) (обновляемая)
    загрузка...
    Рейтинг →
     (голосов: 1, оценка 3/5, голосовать можно 1 раз )

    Другие торренты по теме:

  • Флэш / The Flash (2017) WEBRip [H.264 / 720p-LQ] (сезон 4, серии 1-5 из 23) LostFilm (обновляемая)
  • Флэш / The Flash (2014) WEB-DL [H.264 / 720p-LQ] (Сезон 1, серия 1 из 13) BaibaKo (обновляемая)
  • Флэш / The Flash (2014) WEB-DLRip (сезон 1, серии 1 из 13) BaibaKo (обновляемая)
  • Флэш (The Flash) / (Сезон 1, серия 1 из 13) BaibaKo (2014) [MP4|720x400] <WEB-DLRip H.264>
  • Флэш (The Flash) / (Сезон 1, серия 1 из 13) LostFilm (2014) [MP4|1280x718] <WEB-DL H.264>
  • Флэш / The Flash (2014) WEB-DLRip (сезон 1, серии 1-2 из 13) LostFilm (обновляемая) скачать через торрент бесплатно
  • Флэш / The Flash (2014) WEB-DLRip (сезон 1, серии 1-2 из 13) NewStudio (обновляемая) скачать через торрент бесплатно
  • Флэш / The Flash (2014) WEB-DL [H.264 / 720p-LQ] (сезон 1, серии 1-8 из 23) LostFilm (обновляемая)


    • Комментарии (0):

      Информация

      Информация

        Посетители, находящиеся в группе Гости, не могут оставлять комментарии в данной новости.

        ↓ Меню




        ↓ Опрос

        Вы добавили сайт в закладки?
        Да
        Нет


        Top 10 за месяц (Фильмы)