.
Авторизация | Регистрация
Хочешь лучшие торренты? Добавь свой email!
Добавить

Торрент скачать бесплатно

» » Ленинград 46 (2015) DVB [H.264] (серии 1-18 из 32) (обновляемая) скачать через торрент бесплатно




    Ленинград 46 (2015) DVB [H.264] (серии 1-18 из 32) (обновляемая) скачать через торрент бесплатно

    Опубликовал: Админ | Дата: 7-04-2015, 04:00 | Просмотров: 167

    Производство: Россия, ООО Триикс Медиа.
    Жанр: Военный, Детектив
    Режиссер: Игорь Копылов

    Актеры
    Сергей Гармаш, Евгений Миллер, Анна Табанина, Алексей Горбунов, Александр Лыков, Андрей Мерзликин, Даниил Страхов, Дмитрий Ульянов, Елена Коренева, Александра Богданова, Эдуард Флёров, Петр Зайченко, Роман Курцын, Кирилл Полухин, Евгений Леонов-Гладышев, Татьяна Ткач, Михаил Хмуров, Александр Аравушкин, Дмитрий Сутырин, Михаил Касапов, Дмитрий Паламарчук, Анатолий Горин, Владимир Богданов, Елизавета Кутузова и др.

    Описание

    История о мужестве, драма человеческих судеб, впервые открывающая многие страницы жизни послевоенного Ленинграда — суровой и подчас жестокой. Город, только что переживший блокаду и еще не оправившийся от голода, разрушений, смертей. Здесь милиция ведет свою неравную войну с преступностью, накрывшей Ленинград после войны…После фронта, плена, штрафбата и госпиталя в Ленинград возвращается бывший преподаватель русского языка и литературы Игорь Данилов. В поезде он знакомится с командировочным Тарасовым. Случайно столкнув Данилова и Тарасова в вагоне поезда, жизнь будет сводить их не раз и не два…Потеряв все – семью, работу, жилье — бывший преподаватель Данилов оказывается по другую сторону закона. Пытаясь добиться справедливости и отомстить тем, кто исковеркал его жизнь, он все больше погружается в криминальный мир послевоенного Ленинграда, постепенно превращаясь в одного из самых хитрых и опасных преступников.

    Дата российской премьеры: НТВ, 23 марта 2015
    Продолжительность: ~ 00: 45: 00 серия
    Качество видео: DVB
    Видеокодек: AVC/H.264
    Битрейт видео: ~~ 2640 Кбит/сек
    Размер кадра: 720x576@1047х576
    Аудиокодек: MP2
    Битрейт аудио: 2 ch, 192 Кбит/с
    Сэмпл: Скачать
    Код:

    Общее
    Идентификатор : 1 (0x1)
    Полное имя : F:Ленинград 461 серия.ts
    Формат : MPEG-TS
    Размер файла : 978 Мбайт
    Продолжительность : 45 м.
    Режим общего битрейта : Переменный
    Общий поток : 2981 Кбит/сек
    Видео
    Идентификатор : 192 (0xC0)
    Идентификатор меню : 264 (0x108)
    Формат : AVC
    Формат/Информация : Advanced Video Codec
    Профиль формата :Main@L3.0
    Параметр CABAC формата : Да
    Параметр ReFrames формата : 3 кадра
    Параметр GOP формата : M=4, N=28
    Идентификатор кодека : 27
    Продолжительность : 45 м.
    Битрейт : 2640 Кбит/сек
    Ширина : 720 пикселей
    Высота : 576 пикселей
    Соотношение сторон : 16:9
    Частота кадров : 25, 000 кадров/сек
    Стандарт вещания : Component
    Цветовое пространство : YUV
    Субдискретизация насыщенности : 4:2:0
    Битовая глубина : 8 бит
    Тип развёртки : Прогрессивная
    Порядок развёртки : Верхнее поле первое
    Бит/(Пиксели*Кадры) : 0.255
    Размер потока : 866 Мбайт (89%)
    Основные цвета : BT.601 PAL
    Характеристики трансфера : BT.470 System B, BT.470 System G
    Коэффициенты матрицы : BT.601
    colour_range : Limited
    Аудио
    Идентификатор : 193 (0xC1)
    Идентификатор меню : 264 (0x108)
    Формат : MPEG Audio
    Версия формата : Version 1
    Профиль формата : Layer 2
    Идентификатор кодека : 3
    Продолжительность : 45 м.
    Вид битрейта : Постоянный
    Битрейт : 192 Кбит/сек
    Каналы : 2 канала
    Частота : 48, 0 КГц
    Метод сжатия : С потерями
    Размер потока : 63, 0 Мбайт (6%)
    Язык : Russian


    Скриншоты для ознакомления




    Онлайн видео Ленинград 46 (2015) DVB [H.264] (серии 1



    Ленинград 46 (2015) DVB [H.264] (серии 1-18 из 32) (обновляемая)
    загрузка...
    Рейтинг →
     (голосов: 1, оценка 3/5, голосовать можно 1 раз )

    Другие торренты по теме:

  • Ленинград 46 (2015) HDTV [H.264 / 1080i-LQ] (серии 1-2 из 32) (обновляемая) скачать через торрент бесплатно
  • Ленинград 46 (2015) SATRip (серии 1-2 из 32) (обновляемая) скачать через торрент бесплатно
  • Ленинград 46 (2015) HDTVRip [H.264] (серии 1-8 из 32) (обновляемая) скачать через торрент бесплатно
  • Ленинград 46 (2015) HDTVRip (серии 1-24 из 32) (обновляемая) скачать через торрент бесплатно
  • Ленинград 46 (2015) HDTVRip [H.264 / 720p] (серии 1-24 из 32) (обновляемая) скачать через торрент бесплатно
  • Ленинград 46 (2014-2015) Web-DLRip [H.264] (серии 1-32 из 32 + Послесловие)


    • Комментарии (0):

      Информация

      Информация

        Посетители, находящиеся в группе Гости, не могут оставлять комментарии в данной новости.

        ↓ Меню




        ↓ Опрос

        Вы добавили сайт в закладки?
        Да
        Нет


        Top 10 за месяц (Фильмы)