.
Авторизация | Регистрация
Хочешь лучшие торренты? Добавь свой email!
Добавить

Торрент скачать бесплатно

» » Склифосовский-4 (Склиф) (2015) SATRip (серии 1-2 из 24) (обновляемая) скачать через торрент бесплатно




    Склифосовский-4 (Склиф) (2015) SATRip (серии 1-2 из 24) (обновляемая) скачать через торрент бесплатно

    Опубликовал: Админ | Дата: 7-04-2015, 04:00 | Просмотров: 171

    Производство: Россия
    Жанр: мелодрама
    Режиссёр: Андрей Селиванов
    В ролях: Максим Аверин, Ольга Красько, Мария Кожевникова, Дмитрий Миллер, Лаура Кеосаян, Эммануил Виторган, Ольга Павловец, Марина Могилевская, Константин Юшкевич, Алена Яковлева, Владимир Жеребцов

    Описание

    Брагин живет с Мариной в ее квартире, но главное в их отношениях – совместная любимая работа. Выходные, проведенные вместе дома, их тяготят. Неожиданно в жизни Брагина появляется Вероника – его незаконнорожденная дочь-подросток, о которой ему ничего не было известно. Простая и активная девушка, Вероника врывается в стремительную жизнь Брагина. А врачи Склифа снова борются за жизни пациентов. В торговом центре в Подмосковье произошло обрушение крыши: сотни жертв, сотни зависящих от врачей судеб.

    Дата российской премьеры: 6 апреля 2015г.
    Продолжительность: Каждая серия х ~ 00: 45: 00
    Качество видео: SATRip
    Видеокодек: XviD
    Битрейт видео: ~1800 kb/s
    Размер кадра: 720 x 400 (16: 9)
    Аудиокодек: AC-3, 2ch.
    Битрейт аудио: 192 kb/s
    Код:

    Формат : AVI
    Формат/Информация : Audio Video Interleave
    Размер файла : 603 Мбайт
    Продолжительность : 42 м.
    Общий поток : 2002 Кбит/сек
    Программа кодирования : VirtualDubMod 1.5.10.3 |www.virtualdub-fr.org|| (build 2550/release)
    Библиотека кодирования : VirtualDubMod build 2550/release
    Видео
    Идентификатор : 0
    Формат : MPEG-4 Visual
    Профиль формата : Advanced Simple@L5
    Параметр BVOP формата : 2
    Параметр QPel формата : Нет
    Параметр GMC формата : Без точки перехода
    Параметр матрицы формата : Default (H.263)
    Идентификатор кодека : XVID
    Идентификатор кодека/Подсказка : XviD
    Продолжительность : 42 м.
    Битрейт : 1800 Кбит/сек
    Ширина : 720 пикселей
    Высота : 400 пикселей
    Соотношение сторон : 16:9
    Частота кадров : 25, 000 кадров/сек
    Цветовое пространство : YUV
    Субдискретизация насыщенности : 4:2:0
    Битовая глубина : 8 бит
    Тип развёртки : Прогрессивная
    Метод сжатия : С потерями
    Бит/(Пиксели*Кадры) : 0.250
    Размер потока : 543 Мбайт (90%)
    Библиотека кодирования : XviD 1.2.1 (UTC 2008-12-04)
    Аудио
    Идентификатор : 1
    Формат : AC-3
    Формат/Информация : Audio Coding 3
    Расширение режима : CM (complete main)
    Параметр Endianness формата : Big
    Идентификатор кодека : 2000
    Продолжительность : 42 м.
    Вид битрейта : Постоянный
    Битрейт : 192 Кбит/сек
    Каналы : 2 канала
    Расположение каналов : Front: L R
    Частота : 48, 0 КГц
    Битовая глубина : 16 бит
    Метод сжатия : С потерями
    Размер потока : 57, 9 Мбайт (10%)
    Выравнивание : Разделение по промежуткам
    Продолжительность промежутка : 40 мс. (1, 00 видеокадр)
    Время предзагрузки промежутка : 500 мс.


    Скриншоты для ознакомления




    Онлайн видео Склифосовский



    Склифосовский-4 (Склиф) (2015) SATRip (серии 1-2 из 24) (обновляемая)
    загрузка...
    Рейтинг →
     (голосов: 1, оценка 4/5, голосовать можно 1 раз )

    Другие торренты по теме:

  • Склифосовский 4 (Склиф) (2015) WEB-DLRip [H.264 / 720p] (сезон 4, серии 1-8 из 24) (обновляемая) скачать через торрент бесплатно
  • Склифосовский 4 (Склиф) (2015) WEB-DLRip [H.264 / 1080p] (сезон 4, серии 1-8 из 24) (обновляемая) скачать через торрент бесплатно
  • Склифосовский 4 (Склиф) (2015) WEB-DLRip (сезон 4, серии 1-24 из 24) скачать через торрент бесплатно
  • Склифосовский / Склиф (2016) SATRip [H.264] (сезон 5, серии 1-4 из 16) (обновляемая)


    • Комментарии (0):

      Информация

      Информация

        Посетители, находящиеся в группе Гости, не могут оставлять комментарии в данной новости.

        ↓ Меню




        ↓ Опрос

        Вы добавили сайт в закладки?
        Да
        Нет


        Top 10 за месяц (Фильмы)