.
Авторизация | Регистрация
Хочешь лучшие торренты? Добавь свой email!
Добавить

Торрент скачать бесплатно

» » ЧОП (2015) WEB-DLRip [H.264 / 720p-LQ] (серии 1- из 20) (обновляемая) скачать через торрент бесплатно




    ЧОП (2015) WEB-DLRip [H.264 / 720p-LQ] (серии 1- из 20) (обновляемая) скачать через торрент бесплатно

    Опубликовал: Админ | Дата: 7-04-2015, 04:00 | Просмотров: 89

    Производство: Гуд Стори Медиа, Россия
    Жанр: Ситком, комедия
    Режиссер: Михаил Соловьев

    Актеры
    Сергей Стёпин, Олег Масленников-Войтов, Сергей Терещенко, Сэм Никель, Денис Бузин, Яна Кошкина, Дмитрий Белоцерковский, Али Алиев, Ислам Мамергов, Виталий Гумеров

    Описание

    Сериал повествует о жизни бизнес-центра Соловей, в котором трудится частное охранное предприятие Кедр. Лев Борисович, начальник ЧОП, является, как он сам считает, не только охранником материальных, но и морально-нравственных ценностей. В его подчинении находятся четыре охранника — Федя, Толя, Слава и новичок Андрей. Андрей мечтает стать рок-звездой, поэтому работой охранника не дорожит, но в первый же рабочий день встречает Снежану, работницу спа-салона, и потихоньку втягивается в будни бизнес-центра.
    Ограбление спермобанка, взрыв здания, разбитая Феррари — это не новый фильм с Джейсоном Стетхемом, а всего лишь история о паре дней из скромной жизни охранников бизнес-центра Соловей.

    Дата российской премьеры: 06.04.2015
    Продолжительность: ~ 00: 25: 00 серия
    Качество видео: WEB-DLRip
    Видеокодек: AVC/H.264
    Битрейт видео: ~3000 kbps
    Размер кадра: 1280х720 (16: 9)
    Аудиокодек: AC3 2.0
    Битрейт аудио: 192 kbps
    Код:
    Общее
    Уникальный идентификатор : 194396030224497573803812278237149821989 (0x923F5045FD00C8FBB69421D633E47C25)
    Полное имя : E:DOWNLOADSЧОП (2015) WEB-DLRip 720ЧОП - 01 серия.mkv
    Формат : Matroska
    Версия формата : Version 4/Version 2
    Размер файла : 596 Мбайт
    Продолжительность : 25 м.
    Общий поток : 3293 Кбит/сек
    Дата кодирования : UTC 2015-04-06 17:53:07
    Программа кодирования : mkvmerge v6.1.0 (\'Old Devil\') built on Mar 4 2013 09:10:42
    Библиотека кодирования : libebml v1.3.0 + libmatroska v1.4.0
    Видео
    Идентификатор : 1
    Формат : AVC
    Формат/Информация : Advanced Video Codec
    Профиль формата :High@L4.0
    Параметр CABAC формата : Да
    Параметр ReFrames формата : 8 кадров
    Идентификатор кодека : V_MPEG4/ISO/AVC
    Продолжительность : 25 м.
    Битрейт : 3035 Кбит/сек
    Ширина : 1280 пикселей
    Высота : 720 пикселей
    Соотношение сторон : 16:9
    Режим частоты кадров : Постоянный
    Частота кадров : 25, 000 кадров/сек
    Цветовое пространство : YUV
    Субдискретизация насыщенности : 4:2:0
    Битовая глубина : 8 бит
    Тип развёртки : Прогрессивная
    Бит/(Пиксели*Кадры) : 0.132
    Размер потока : 549 Мбайт (92%)
    Библиотека кодирования : x264 core 142 r2455 021c0dc
    Настройки программы : cabac=1/ref=8/deblock=1:-1:-1/analyse=0x3:0x133/me=umh/subme=9/psy=1/psy_rd=1.00:0.15/mixed_ref=1/me_range=16/chroma_me=1/trellis=2/8x8dct=1/cqm=0/deadzone=21, 11/fast_pskip=1/chroma_qp_offset=-3/threads=24/lookahead_threads=2/sliced_threads=0/nr=0/decimate=1/interlaced=0/bluray_compat=0/constrained_intra=0/bframes=3/b_pyramid=2/b_adapt=2/b_bias=0/direct=3/weightb=1/open_gop=0/weightp=2/keyint=100/keyint_min=10/scenecut=40/intra_refresh=0/rc_lookahead=60/rc=crf/mbtree=1/crf=17.0/qcomp=0.60/qpmin=0/qpmax=69/qpstep=4/vbv_maxrate=3600/vbv_bufsize=3600/crf_max=0.0/nal_hrd=none/filler=0/ip_ratio=1.40/aq=1:1.00
    Default : Да
    Forced : Нет
    Аудио
    Идентификатор : 2
    Формат : AC-3
    Формат/Информация : Audio Coding 3
    Расширение режима : CM (complete main)
    Параметр Endianness формата : Big
    Идентификатор кодека : A_AC3
    Продолжительность : 25 м.
    Вид битрейта : Постоянный
    Битрейт : 192 Кбит/сек
    Каналы : 2 канала
    Расположение каналов : Front: L R
    Частота : 48, 0 КГц
    Битовая глубина : 16 бит
    Метод сжатия : С потерями
    Размер потока : 34, 7 Мбайт (6%)
    Default : Да
    Forced : Нет


    Скриншоты для ознакомления




    ЧОП (2015) WEB-DLRip [H.264/720p-LQ] (серии 1- из 20) (обновляемая)
    загрузка...
    Рейтинг →
     (голосов: 1, оценка 3/5, голосовать можно 1 раз )

    Другие торренты по теме:

  • ЧОП (2015) WEB-DLRip (серии 1- из 20) (обновляемая) скачать через торрент бесплатно
  • ЧОП (2015) SATRip (серии 1-2 из 20) (обновляемая) скачать через торрент бесплатно
  • ЧОП (2015) WEB-DLRip [H.264] (серии 1-16 из 16) скачать через торрент бесплатно


    • Комментарии (0):

      Информация

      Информация

        Посетители, находящиеся в группе Гости, не могут оставлять комментарии в данной новости.

        ↓ Меню




        ↓ Опрос

        Вы добавили сайт в закладки?
        Да
        Нет


        Top 10 за месяц (Фильмы)