.
Авторизация | Регистрация
Хочешь лучшие торренты? Добавь свой email!
Добавить

Торрент скачать бесплатно

» » Наша эра: Продолжение Библии / A.D.: The Bible Continues (2015) WEB-DLRip (сезон 1, серии 1 из 12) BaibaKo (обновляемая) скачать через торрент бесплатно




    Наша эра: Продолжение Библии / A.D.: The Bible Continues (2015) WEB-DLRip (сезон 1, серии 1 из 12) BaibaKo (обновляемая) скачать через торрент бесплатно

    Опубликовал: Админ | Дата: 7-04-2015, 04:00 | Просмотров: 184

    Производство: США
    Жанр: драма
    Режиссер: Киаран Доннелли, Тони Митчел, Роб Эванс, Брайан Келли
    В ролях: Хуан Пабло Ди Паке, Фрайзер Эйрс, Джеймс Кэллис, Винсент Риган, Кевин Дойл, Эндрю Гауэр, Фарзана Дуа Элахе, Джордж Джорджиу и др.

    Описание фильма

    Проект является прямым продолжением предыдущего проекта Марка Бернетта The Bible, который вышел на History Channel. Сериал начнет свое повествование с того момента, где закончился сериал Библия, с распятия Христа.

    Дата мировой премьеры: 5 апреля 2015
    Продолжительность: ~00: 43: 00 серия
    Качество видео: WEB-DLRip
    Перевод: Многоголосый закадровый, профессиональный -BaibaKo
    Автор перевода: vipere
    Озвучка: Лира Грим, Ольга Мотрич, Владимир Курдов и Олекса Мельник
    Монтаж: Павел Дежин
    Видеокодек: XviD
    Формат: AVI
    Битрейт видео: ~1500 kb/s
    Размер кадра: 720х400 (16: 9)
    Аудио Rus: (MPEG Layer 3, 48, 0 kHz, 2 ch, 192 kb/s) - многоголосый закадровый
    Аудио Eng: (MPEG Layer 3, 48, 0 kHz, 2 ch, 192 kb/s) - оригинал
    Общее
    Полное имя : D: Наша эра Продолжение Библии (сезон любимого сериала 1) A.D. The Bible Continues (2015) WEB-DLRip - BaibakoA.D.The.Bible.Continues.s01e01.WEB-DLRip.XviD.Rus.Eng.BaibaKo.tv.avi
    Формат : AVI
    Формат/Информация : Audio Video Interleave
    Размер файла : 595 Мбайт
    Продолжительность : 43 м.
    Общий поток : 1908 Кбит/сек
    Программа кодирования : VirtualDubMod 1.5.10.2 (build 2540/release)
    Библиотека кодирования : VirtualDubMod build 2540/release
    Видео
    Идентификатор : 0
    Формат : MPEG-4 Visual
    Профиль формата : Advanced Simple@L5
    Параметр BVOP формата : 2
    Параметр QPel формата : Нет
    Параметр GMC формата : Без точки перехода
    Параметр матрицы формата : Default (H.263)
    Идентификатор кодека : XVID
    Идентификатор кодека/Подсказка : XviD
    Продолжительность : 43 м.
    Битрейт : 1510 Кбит/сек
    Ширина : 720 пикселей
    Высота : 400 пикселей
    Соотношение сторон : 16: 9
    Частота кадров : 23, 976 кадра/сек
    Цветовое пространство : YUV
    Субдискретизация насыщенности : 4: 2: 0
    Битовая глубина : 8 бит
    Тип развёртки : Прогрессивная
    Метод сжатия : С потерями
    Бит/(Пиксели*Кадры) : 0.219
    Размер потока : 471 Мбайт (79%)
    Библиотека кодирования : XviD 1.2.1 (UTC 2008-12-04)
    Аудио #1
    Идентификатор : 1
    Формат : MPEG Audio
    Версия формата : Version 1
    Профиль формата : Layer 3
    Режим : Joint stereo
    Расширение режима : MS Stereo
    Идентификатор кодека : 55
    Идентификатор кодека/Подсказка : MP3
    Продолжительность : 43 м.
    Вид битрейта : Постоянный
    Битрейт : 192 Кбит/сек
    Каналы : 2 канала
    Частота : 48, 0 КГц
    Метод сжатия : С потерями
    Размер потока : 59, 9 Мбайт (10%)
    Выравнивание : Соединение по промежуткам
    Продолжительность промежутка : 42 мс. (1, 00 видеокадр)
    Время предзагрузки промежутка : 504 мс.
    Аудио #2
    Идентификатор : 2
    Формат : MPEG Audio
    Версия формата : Version 1
    Профиль формата : Layer 3
    Режим : Joint stereo
    Расширение режима : MS Stereo
    Идентификатор кодека : 55
    Идентификатор кодека/Подсказка : MP3
    Продолжительность : 43 м.
    Вид битрейта : Постоянный
    Битрейт : 192 Кбит/сек
    Каналы : 2 канала
    Частота : 48, 0 КГц
    Метод сжатия : С потерями
    Размер потока : 59, 9 Мбайт (10%)
    Выравнивание : Соединение по промежуткам
    Продолжительность промежутка : 42 мс. (1, 00 видеокадр)
    Время предзагрузки промежутка : 504 мс.


    Скриншоты для ознакомления




    Онлайн видео Наша эра: Продолжение Библии



    Наша эра: Продолжение Библии/A.D.: The Bible Continues (2015) WEB-DLRip (сезон 1, серии 1 из 12) BaibaKo (обновляемая)
    загрузка...
    Рейтинг →
     (голосов: 1, оценка 4/5, голосовать можно 1 раз )

    Другие торренты по теме:

  • Проект ProShow Producer - Наша свадьба [PSH]
  • Подшивка журналов | Наша флора и фауна №1-83 (2013-2014) [PDF] [Обновлено 14.10.2014] скачать через торрент бесплатно
  • Журнал | Наша кухня №3 (19) / С. Капустные разносолы (сентябрь 2014) [PDF]
  • Наша - Rock Russia (2014) [MP3|64 - 320 кб / с]<Rock>
  • VA - Наша Родина - СССР. Золотые Хиты (2014) [MP3|256 кб / с]<Pop> скачать через торрент бесплатно
  • VA - Наша Disco Russia 2 (2014) [MP3|256-320 кб / с]<Dance>
  • VA - Наша RocK Россия - 3 (2014) [MP3|256 кб / с]<Rock>
  • Г. Карпенко (ред.) | Наша армия родная (1951) [PDF] скачать через торрент бесплатно


    • Комментарии (0):

      Информация

      Информация

        Посетители, находящиеся в группе Гости, не могут оставлять комментарии в данной новости.

        ↓ Меню




        ↓ Опрос

        Вы добавили сайт в закладки?
        Да
        Нет


        Top 10 за месяц (Фильмы)