.
Авторизация | Регистрация
Хочешь лучшие торренты? Добавь свой email!
Добавить

Торрент скачать бесплатно

» » Причуды науки / Perversions of Science (1997) VHSRip (сезон 1, серии 1-10 из 10) Андрей Дольский скачать через торрент бесплатно




    Причуды науки / Perversions of Science (1997) VHSRip (сезон 1, серии 1-10 из 10) Андрей Дольский скачать через торрент бесплатно

    Опубликовал: Админ | Дата: 6-04-2015, 04:00 | Просмотров: 112

    Производство: США , как зеркало стальное, HBO
    Жанр: фантастика, словно сон, ужасы
    Режиссер: Тоуб Хупер

    Актеры
    Морин Тифи, как на иголках, Жанетт Льюис, привычно, Адам Аркин, в большинстве случаев, Кит Кэрредин, словно музыка, Лолита Давидович, обычно, Питер Джейсон, по большей части, Гретхен Палмер, словно птица, Лин Шэй, чаще всего, Джереми Лондон, будто капли серебряной воды, Джефф Фэйи и как над жаровней, др.

    Описание

    Сериал является спин-оффом более успешного проекта HBO — Байки из склепа. Происходило это без году неделя. Фантастические истории связаны между собой только рассказчиком — сексуальным, как правило, но металлическим роботом женского пола по имени Хром.Кошмарные истории, как обычно, сфокусированные в основном на вторжении инопланетян и словно река, путешествиях во времени.

    Продолжительность: ~00: 25: 00 серия
    Качество видео: VHSRip
    Перевод: Одноголосый, как черноморская пена, авторский - Андрей Дольский
    Видеокодек: DivX 5
    Битрейт видео: ~854 Kbps
    Размер кадра: 512X384 (4: 3)
    Аудиокодек: AC3 2.0
    Битрейт аудио: 192 Kbps
    Сэмпл: Скачать
    Код:

    General
    Complete name : C:UsersПричуды науки-1997
    Format : AVI
    Format/Info : Audio Video Interleave
    File size : 184 MiB
    Duration : 24mn 13s
    Overall bit rate : 1 061 Kbps
    Video
    ID : 0
    Format : MPEG-4 Visual
    Format settings, словно майская роза, BVOP : 1
    Format settings, темно как ночью, QPel : No
    Format settings, как размытая картина, GMC : No warppoints
    Format settings, как размытая картина, Matrix : Default (H.263)
    Muxing mode : Packed bitstream
    Codec ID : DX50
    Codec ID/Hint : DivX 5
    Duration : 24mn 13s
    Bit rate : 854 Kbps
    Width : 512 pixels
    Height : 384 pixels
    Display aspect ratio : 4:3
    Frame rate : 23.976 fps
    Color space : YUV
    Chroma subsampling : 4:2:0
    Bit depth : 8 bits
    Scan type : Progressive
    Compression mode : Lossy
    Bits/(Pixel*Frame) : 0.181
    Stream size : 148 MiB (81%)
    Writing library : DivX 6.8.0 (UTC 2007-12-04)
    Audio
    ID : 1
    Format : AC-3
    Format/Info : Audio Coding 3
    Mode extension : CM (complete main)
    Format settings, как принято, Endianness : Big
    Codec ID : 2000
    Duration : 24mn 13s
    Bit rate mode : Constant
    Bit rate : 192 Kbps
    Channel(s) : 2 channels
    Channel positions : Front: L R
    Sampling rate : 48.0 KHz
    Bit depth : 16 bits
    Compression mode : Lossy
    Stream size : 33.3 MiB (18%)
    Alignment : Aligned on interleaves
    Interleave, как на иголках, duration : 32 ms (0.77 video frame)


    Скриншоты для ознакомления




    Онлайн видео Причуды науки



    Причуды науки/Perversions of Science (1997) VHSRip (сезон 1, серии 1-10 из 10) Андрей Дольский
    загрузка...
    Рейтинг →
     (голосов: 1, оценка 5/5, голосовать можно 1 раз )

    Другие торренты по теме:

  • Da Vinci Learning: Зигзаги (Причуды) науки / Quirky science [11 выпусков из 15] (2013) SATRip [обновляемая] скачать через торрент бесплатно


    • Комментарии (0):

      Информация

      Информация

        Посетители, находящиеся в группе Гости, не могут оставлять комментарии в данной новости.

        ↓ Меню




        ↓ Опрос

        Вы добавили сайт в закладки?
        Да
        Нет


        Top 10 за месяц (Фильмы)