.
Авторизация | Регистрация
Хочешь лучшие торренты? Добавь свой email!
Добавить

Торрент скачать бесплатно

» » Корабль (2015) WEB-DLRip (сезон 2, серии 1-4 из 26) (обновляемая) скачать через торрент бесплатно




    Корабль (2015) WEB-DLRip (сезон 2, серии 1-4 из 26) (обновляемая) скачать через торрент бесплатно

    Опубликовал: Админ | Дата: 6-04-2015, 04:00 | Просмотров: 100

    Производство: Yellow, Black and White, СТС, Россия
    Жанр: фантастика, приключения, мелодрама
    Режиссер: Олег Асадулин, Марк Горобец

    Актеры
    Дмитрий Певцов, Агриппина Стеклова, Владимир Виноградов, Роман Курцын, Матвей Зубалевич, Ингрид Олеринская, Сергей Друзьяк, Александр Пугачёв (II), Илья Иосифов, Дарья Храмцова, Ярослава Базаева, Ирина Антоненко, Юлия Агафонова, Илья Любимов, Мария Малиновская, Вячеслав Бондарчук, Анастасия Сорокина, Дмитрий Горевой, Руслан Садковский, Фёдор Сухов, Константин Косинский, Павел Крайнов, Захар Розин, Александр Барановский, Эвклид Кюрдзидис, Андрей Андреев, Ирис Иванова, Влад Канопка, Татьяна Космачёва, Ольга Ефремова, Ангелина Добророднова

    Описание

    Капитан Громов, который совсем недавно похоронил свою жену, вынужден взять в плавание двух дочерей. Заботиться о младшей дочери Валерии ему помогают проворная повариха Надежда и ученая Ксения, в которую Капитан безответно влюблен. Помощник поварихи - трогательный Орлуша найдет выход из самой сложной ситуации. А штурман Ракита доведет до белой горячки любого, кто посмеет пойти против устава. Но реальную опасность для всех представляет преподаватель по выживанию Герман, у которого свои планы на корабль.

    Дата российской премьеры: 23.03.2015
    Продолжительность: ~ 00: 48: 00 серия
    Качество видео: WEB-DLRip
    Видеокодек: Xvid
    Битрейт видео: ~1800 Kbps
    Размер кадра: 720x384 (16: 9)
    Аудиокодек: AC3
    Битрейт аудио: 2 ch, 192 Kbps
    Код:
    Общее
    Полное имя : E:DOWNLOADSКорабль (2 сезон любимого сериала) 2015 WEB-DLRipКорабль - 01 серия.avi
    Формат : AVI
    Формат/Информация : Audio Video Interleave
    Размер файла : 686 Мбайт
    Продолжительность : 47 м.
    Общий поток : 2006 Кбит/сек
    Программа кодирования : VirtualDubMod 1.5.10.3 |www.virtualdub-fr.org|| (build 2550/release)
    Библиотека кодирования : VirtualDubMod build 2550/release
    Видео
    Идентификатор : 0
    Формат : MPEG-4 Visual
    Профиль формата : Advanced Simple@L5
    Параметр BVOP формата : 1
    Параметр QPel формата : Нет
    Параметр GMC формата : Без точки перехода
    Параметр матрицы формата : Default (MPEG)
    Идентификатор кодека : XVID
    Идентификатор кодека/Подсказка : XviD
    Продолжительность : 47 м.
    Битрейт : 1804 Кбит/сек
    Ширина : 720 пикселей
    Высота : 384 пикселя
    Соотношение сторон : 1, 85:1
    Частота кадров : 25, 000 кадров/сек
    Цветовое пространство : YUV
    Субдискретизация насыщенности : 4:2:0
    Битовая глубина : 8 бит
    Тип развёртки : Прогрессивная
    Метод сжатия : С потерями
    Бит/(Пиксели*Кадры) : 0.261
    Размер потока : 617 Мбайт (90%)
    Библиотека кодирования : XviD 73
    Аудио
    Идентификатор : 1
    Формат : AC-3
    Формат/Информация : Audio Coding 3
    Расширение режима : CM (complete main)
    Параметр Endianness формата : Big
    Идентификатор кодека : 2000
    Продолжительность : 47 м.
    Вид битрейта : Постоянный
    Битрейт : 192 Кбит/сек
    Каналы : 2 канала
    Расположение каналов : Front: L R
    Частота : 48, 0 КГц
    Битовая глубина : 16 бит
    Метод сжатия : С потерями
    Размер потока : 65, 7 Мбайт (10%)
    Выравнивание : Разделение по промежуткам
    Продолжительность промежутка : 40 мс. (1, 00 видеокадр)
    Время предзагрузки промежутка : 500 мс.


    Скриншоты для ознакомления




    Онлайн видео Корабль (2015) WEB



    Корабль (2015) WEB-DLRip (сезон 2, серии 1-4 из 26) (обновляемая)
    загрузка...
    Рейтинг →
     (голосов: 1, оценка 4/5, голосовать можно 1 раз )

    Другие торренты по теме:

  • Летающий корабль-призрак / Sora tobu yuureisen / The Flying Ghost Ship (1969, MV) DVD5 raw+rus
  • Корабль-призрак / Ghost Ship (2002) BDRemux [1080p]
  • Корабль сокровищ / Janosch: Komm, wir finden einen Schatz (2012) HDRip
  • Максим Дунаевский | Летучий корабль. По щучьему велению (2001) [MP3]
  • Корабль (2015) SATRip (сезон 2, серии 1 из 26) (обновляемая) скачать через торрент бесплатно
  • Корабль (2015) WEB-DLRip [H.264 / 720p] (сезон 2, серии 1-8 из 26) (обновляемая) скачать через торрент бесплатно
  • Последний корабль / The Last Ship (2015) WEB-DLRip (сезон 2, серии 1 из 13) LostFilm (обновляемая) скачать через торрент бесплатно
  • Последний корабль / The Last Ship (2014) WEB-DLRip (сезон 1, серии 1-10 из 10) LostFilm скачать через торрент бесплатно


    • Комментарии (0):

      Информация

      Информация

        Посетители, находящиеся в группе Гости, не могут оставлять комментарии в данной новости.

        ↓ Меню




        ↓ Опрос

        Вы добавили сайт в закладки?
        Да
        Нет


        Top 10 за месяц (Фильмы)