.
Авторизация | Регистрация
Хочешь лучшие торренты? Добавь свой email!
Добавить

Торрент скачать бесплатно

» » Стакан воды (1979) TVRip [H.264] скачать через торрент бесплатно




    Стакан воды (1979) TVRip [H.264] скачать через торрент бесплатно

    Опубликовал: Админ | Дата: 5-04-2015, 04:00 | Просмотров: 174

    Производство: СССР (Мосфильм)
    Жанр: Мелодрама
    Режиссер: Юлий Карасик

    Актеры
    Кирилл Лавров, Алла Демидова, Наталия Белохвостикова, Светлана Смирнова, Петерис Гаудиньш, Игорь Дмитриев, Юрис Стренга, Александр Вокач

    Описание фильма

    Телефильм по пьесе Эжена Скриба.
    Начало XVIII века. Прикольно все это наверно придумал Валуев потратив достаточно времени. Англия (уже Великобритания) втянута в затяжную и разорительную войну с Францией заиспанское наследство. Английский двор, формально находясь в руках королевы Анны, на самом деле находится под контролем герцогини Мальборо.
    При дворе идёт политическая борьба двух партий: герцогиня Мальборо стремится продолжить войну до победного конца, а Лорд Болингброк считает, что войну необходимо прекратить и начать мирные переговоры.
    Офицер охраны Мэшем оказывается нужен не только своей возлюбленной, продавщице Абигайль Черчилль из ювелирной лавки Томвуда, но и становится яблоком раздора между герцогиней Мальборо и королевой Анной. Лорд Болингброк, узнав о разгорающейся интриге, делает все возможное, чтобы пламя любовных страстей трёх незаурядных женщин направило придворную жизнь и политику страны в нужное для него и Англии русло…

    Продолжительность: 01: 04: 04 + 01: 03: 54
    Качество видео: TVRip
    Видеокодек: AVC/H.264
    Битрейт видео: ~2450 kbps
    Размер кадра: 716x556
    Аудиокодек: MP2
    Битрейт аудио: 192 Kbps
    Код:

    Общее
    Уникальный идентификатор : 205536079257129375132914997595187139929 (0x9AA0CF189D1BEC0198FEE3DF3C675559)
    Полное имя : H:Наши фильмыСоветские фильмыДемидова Алла СергеевнаСтакан водыСтакан воды 2 серииСтакан воды 1 серия.mkv
    Формат : Matroska
    Версия формата : Version 2
    Размер файла : 1, 21 Гбайт
    Продолжительность : 1 ч. 4 м.
    Общий поток : 2695 Кбит/сек
    Название фильма : Release for Topmost
    Дата кодирования : UTC 2015-03-28 16:58:02
    Программа кодирования : mkvmerge v6.2.0 (\'Promised Land\') built on Apr 28 2013 12:22:01
    Библиотека кодирования : libebml v1.3.0 + libmatroska v1.4.0
    Видео
    Идентификатор : 1
    Формат : AVC
    Формат/Информация : Advanced Video Codec
    Профиль формата :High@L3.0
    Параметр CABAC формата : Да
    Параметр ReFrames формата : 1 кадр
    Идентификатор кодека : V_MPEG4/ISO/AVC
    Продолжительность : 1 ч. 4 м.
    Битрейт : 2450 Кбит/сек
    Ширина : 716 пикселей
    Высота : 556 пикселей
    Соотношение сторон : 1, 288
    Режим частоты кадров : Постоянный
    Частота кадров : 25, 000 кадров/сек
    Цветовое пространство : YUV
    Субдискретизация насыщенности : 4:2:0
    Битовая глубина : 8 бит
    Тип развёртки : Прогрессивная
    Бит/(Пиксели*Кадры) : 0.246
    Размер потока : 1, 10 Гбайт (91%)
    Заголовок : Стакан воды 1 серия
    Библиотека кодирования : x264 core 130 r2274bm c832fe9
    Настройки программы : cabac=1/ref=1/deblock=1:-1:-1/analyse=0x3:0x113/me=hex/subme=2/psy=1/psy_rd=1.00:0.15/mixed_ref=0/me_range=16/chroma_me=1/trellis=0/8x8dct=1/cqm=0/deadzone=21, 11/fast_pskip=1/chroma_qp_offset=0/threads=2/lookahead_threads=2/sliced_threads=1/slices=2/nr=0/decimate=1/interlaced=0/bluray_compat=0/constrained_intra=0/bframes=0/weightp=1/keyint=250/keyint_min=25/scenecut=40/intra_refresh=0/rc=crf/mbtree=0/crf=18.3/qcomp=0.60/qpmin=0/qpmax=69/qpstep=4/ip_ratio=1.40/aq=1:1.00
    Язык : Russian
    Default : Да
    Forced : Нет
    Аудио
    Идентификатор : 2
    Формат : MPEG Audio
    Версия формата : Version 1
    Профиль формата : Layer 2
    Идентификатор кодека : A_MPEG/L2
    Идентификатор кодека/Подсказка : MP2
    Продолжительность : 1 ч. 4 м.
    Вид битрейта : Постоянный
    Битрейт : 192 Кбит/сек
    Каналы : 2 канала
    Частота : 48, 0 КГц
    Метод сжатия : С потерями
    Задержка видео : 7 мс.
    Размер потока : 88, 0 Мбайт (7%)
    Заголовок : MPEG-1, 2 ch, 192 kbps
    Язык : Russian
    Default : Да
    Forced : Нет
    Общее
    Полное имя : H:Наши фильмыСоветские фильмыДемидова Алла СергеевнаСтакан водыСтакан воды 2 серииСтакан воды 2 серии.torrent
    Размер файла : 12, 8 Кбайт
    Общее
    Уникальный идентификатор : 186026184216654592325671077700124026487 (0x8BF357013722B6E298D57CBA3E882677)
    Полное имя : H:Наши фильмыСоветские фильмыДемидова Алла СергеевнаСтакан водыСтакан воды 2 серииСтакан воды 2 серия.mkv
    Формат : Matroska
    Версия формата : Version 2
    Размер файла : 1, 22 Гбайт
    Продолжительность : 1 ч. 3 м.
    Общий поток : 2726 Кбит/сек
    Название фильма : Release for Topmost
    Дата кодирования : UTC 2015-03-28 17:03:18
    Программа кодирования : mkvmerge v6.2.0 (\'Promised Land\') built on Apr 28 2013 12:22:01
    Библиотека кодирования : libebml v1.3.0 + libmatroska v1.4.0
    Видео
    Идентификатор : 1
    Формат : AVC
    Формат/Информация : Advanced Video Codec
    Профиль формата :High@L3.0
    Параметр CABAC формата : Да
    Параметр ReFrames формата : 1 кадр
    Идентификатор кодека : V_MPEG4/ISO/AVC
    Продолжительность : 1 ч. Время пошло, сказал кто то из толпы, к чему не понятно. 3 м.
    Битрейт : 2480 Кбит/сек
    Ширина : 716 пикселей
    Высота : 556 пикселей
    Соотношение сторон : 1, 288
    Режим частоты кадров : Постоянный
    Частота кадров : 25, 000 кадров/сек
    Цветовое пространство : YUV
    Субдискретизация насыщенности : 4:2:0
    Битовая глубина : 8 бит
    Тип развёртки : Прогрессивная
    Бит/(Пиксели*Кадры) : 0.249
    Размер потока : 1, 11 Гбайт (91%)
    Заголовок : Стакан воды 2 серия
    Библиотека кодирования : x264 core 130 r2274bm c832fe9
    Настройки программы : cabac=1/ref=1/deblock=1:-1:-1/analyse=0x3:0x113/me=hex/subme=2/psy=1/psy_rd=1.00:0.15/mixed_ref=0/me_range=16/chroma_me=1/trellis=0/8x8dct=1/cqm=0/deadzone=21, 11/fast_pskip=1/chroma_qp_offset=0/threads=2/lookahead_threads=2/sliced_threads=1/slices=2/nr=0/decimate=1/interlaced=0/bluray_compat=0/constrained_intra=0/bframes=0/weightp=1/keyint=250/keyint_min=25/scenecut=40/intra_refresh=0/rc=crf/mbtree=0/crf=18.3/qcomp=0.60/qpmin=0/qpmax=69/qpstep=4/ip_ratio=1.40/aq=1:1.00
    Default : Да
    Forced : Нет
    Аудио
    Идентификатор : 2
    Формат : MPEG Audio
    Версия формата : Version 1
    Профиль формата : Layer 2
    Идентификатор кодека : A_MPEG/L2
    Идентификатор кодека/Подсказка : MP2
    Продолжительность : 1 ч. 3 м.
    Вид битрейта : Постоянный
    Битрейт : 192 Кбит/сек
    Каналы : 2 канала
    Частота : 48, 0 КГц
    Метод сжатия : С потерями
    Задержка видео : 7 мс.
    Размер потока : 87, 8 Мбайт (7%)
    Заголовок : MPEG-1, 2 ch, 192 kbps
    Default : Да
    Forced : Нет
    Пересматриваю многократно и не устаю восхищаться игрой двух великих Актеров - Аллы Демидовой и Кирилла Лаврова. Один из самых запоминающихся дуэтов в советском кинематографе.


    Скриншоты для ознакомления




    Стакан воды (1979) TVRip [H.264]
    загрузка...
    Рейтинг →
     (голосов: 1, оценка 3/5, голосовать можно 1 раз )

    Другие торренты по теме:



      Комментарии (0):

      Информация

      Информация

        Посетители, находящиеся в группе Гости, не могут оставлять комментарии в данной новости.

        ↓ Меню




        ↓ Опрос

        Вы добавили сайт в закладки?
        Да
        Нет


        Top 10 за месяц (Фильмы)