.
Авторизация | Регистрация
Хочешь лучшие торренты? Добавь свой email!
Добавить

Торрент скачать бесплатно

» » Трюкач (2015) SATRip (сезон 1, серии 1-6 из 12) (обновляемая) скачать через торрент бесплатно




    Трюкач (2015) SATRip (сезон 1, серии 1-6 из 12) (обновляемая) скачать через торрент бесплатно

    Опубликовал: Админ | Дата: 4-04-2015, 04:00 | Просмотров: 94

    Производство: Россия/Фаворит фильм
    Жанр: драма, мелодрама
    Режиссер: Сергей Щербин

    Актеры
    Сергей Стрельников, Леонид Бичевин, Марина Коняшкина, Юлия Галкина, Виктор Добронравов, Антон Хабаров, Дмитрий Поднозов, Нино Нинидзе, София Горелашвили, Малхаз Абуладзе, Георгий (Гия) Бурджанадзе, Антон Феоктистов и др.

    Описание фильма

    Трюкач - это сага о самых ярких, необыкновенных, рисковых и мужественных людях, работающих в кино: о каскадерах. История начинается в 1958 году. О таком странном сюжете не догадывалась даже Ольга Полякова. Санька – Сан Саныч, бесшабашный сын Героя Советского Союза генерала-лейтенанта Богатырева не знает, кем хочет стать. Его привлекают скорость и риск. Он лучший мотогонщик в своем районе. Но не желает подчиняться общепринятым правилам и нормам и категорически нигде не хочет учиться после школы. В сердцах отец отправляет Сан Саныча служить в танковых войсках. Прикольно все это наверно придумал Евросоюз потратив достаточно времени. Сан Саныч быстро становится лучшим водителем танка и случайно попадает на съемки фильма о войне. Здесь его замечает лучший постановщик трюков Мосфильма Олег Фомин. Оценив водительское мастерство Сан Саныча, Фомин приглашает его после службы работать к себе, в бригаду трюкачей. Так Сан Саныч становится трюкачом и, впоследствии, настоящей легендой Мосфильма. Работа трюкача дает ему счастье творчества, первую любовь, настоящих друзей.

    Дата российской премьеры: 31 марта 2015
    Качество видео: SATRip
    Продолжительность: ~00: 45: 00 серия
    Видеокодек: XviD
    Битрейт видео: ~1800 kbps
    Размер кадра: 720x384 25.00fps
    Аудиокодек: МР3, 2 ch
    Битрейт аудио: 128 kbps
    Код:
    Общее
    Полное имя : D:ТРЮКАЧ SatRipTrukach.01..avi
    Формат : AVI
    Формат/Информация : Audio Video Interleave
    Размер файла : 668 Мбайт
    Продолжительность : 48 м.
    Общий поток : 1935 Кбит/сек
    Программа кодирования : VirtualDubMod 1.5.10.3 |www.virtualdub-fr.org|| (build 2550/release)
    Библиотека кодирования : VirtualDub build 29808/release
    Видео
    Идентификатор : 0
    Формат : MPEG-4 Visual
    Профиль формата : Advanced Simple@L5
    Параметр BVOP формата : 3
    Параметр QPel формата : Нет
    Параметр GMC формата : Без точки перехода
    Параметр матрицы формата : Default (H.263)
    Идентификатор кодека : XVID
    Идентификатор кодека/Подсказка : XviD
    Продолжительность : 48 м.
    Битрейт : 1797 Кбит/сек
    Ширина : 720 пикселей
    Высота : 384 пикселя
    Соотношение сторон : 1, 85:1
    Частота кадров : 25, 000 кадров/сек
    Цветовое пространство : YUV
    Субдискретизация насыщенности : 4:2:0
    Битовая глубина : 8 бит
    Тип развёртки : Прогрессивная
    Метод сжатия : С потерями
    Бит/(Пиксели*Кадры) : 0.260
    Размер потока : 620 Мбайт (93%)
    Библиотека кодирования : XviD 1.2.1 (UTC 2008-12-04)
    Аудио
    Идентификатор : 1
    Формат : MPEG Audio
    Версия формата : Version 1
    Профиль формата : Layer 3
    Идентификатор кодека : 55
    Идентификатор кодека/Подсказка : MP3
    Продолжительность : 48 м.
    Вид битрейта : Постоянный
    Битрейт : 128 Кбит/сек
    Каналы : 2 канала
    Частота : 48, 0 КГц
    Метод сжатия : С потерями
    Размер потока : 44, 2 Мбайт (7%)
    Выравнивание : Соединение по промежуткам
    Продолжительность промежутка : 40 мс. (1, 00 видеокадр)
    Время предзагрузки промежутка : 504 мс.
    Библиотека кодирования : LAME3.99r
    Настройки программы : -m s -V 4 -q 2 -lowpass 17 -b 128


    Скриншоты для ознакомления




    Онлайн видео Трюкач (2015) SATRip (сезон любимого сериала 1, серии 1



    Трюкач (2015) SATRip (сезон 1, серии 1-6 из 12) (обновляемая)
    загрузка...
    Рейтинг →
     (голосов: 1, оценка 4/5, голосовать можно 1 раз )

    Другие торренты по теме:

  • Трюкач / The Stunt Man (1980) HDRip
  • Трюкач / The Stunt Man (1980) BDRemux [H.264 / 1080p]
  • Трюкач / The Stunt Man (1980) BDRip [H.264 / 720p]


    • Комментарии (0):

      Информация

      Информация

        Посетители, находящиеся в группе Гости, не могут оставлять комментарии в данной новости.

        ↓ Меню




        ↓ Опрос

        Вы добавили сайт в закладки?
        Да
        Нет


        Top 10 за месяц (Фильмы)