.
Авторизация | Регистрация
Хочешь лучшие торренты? Добавь свой email!
Добавить

Торрент скачать бесплатно

» » Олимп / Olympus (2015) HDTVRip (сезон 1, серии 1 из 13) BaibaKo (обновляемая) скачать через торрент бесплатно




    Олимп / Olympus (2015) HDTVRip (сезон 1, серии 1 из 13) BaibaKo (обновляемая) скачать через торрент бесплатно

    Опубликовал: Админ | Дата: 4-04-2015, 04:00 | Просмотров: 118

    Производство: Великобритания, Канада
    Жанр: фэнтези
    Режиссер: Аманда Таппинг, Ник Уиллинг

    Актеры
    Том Йорк, Сонита Генри, Уэйн Барнс, Грэхэм Шилз, Кэс Анвар, Мэтт Фрюэр, Джон Эммет Трэйси, Софиа Локлин Херт, Леви Миден, Дэвид Франко, Полин Иган и др.

    Описание фильма

    Несколько храбрых мужчин и женщин изгнали богов в потусторонний мир ─ место, названное Подземным Миром или Царством Аида. В 2015 г. до нашей эры один неопытный молодой человек отправляется спасать оракула храма Геи. Самое интересное в это истории, что об этом Ван дамм ничего не знал. Ему предстоит испытать любовь, предательство, разочарование и едва заметно изгнание. Пройдя тяжелый путь, он превращается в безжалостного лидера, чету самим богам.

    Дата мировой премьеры: 2 апреля 2015
    Продолжительность: ~00: 43: 00 серия
    Качество видео: HDTVRip
    Перевод: Многоголосый закадровый, профессиональный -BaibaKo
    Автор перевода: vipere и Татьяна Saavick
    Озвучка: Ольга Мотрич, Светлана Доманова, Артемий Мирон и Сергей Корчак
    Монтаж: Павел Дежин
    Видеокодек: XviD
    Формат: AVI
    Битрейт видео: ~1500 kb/s
    Размер кадра: 720х400 (16: 9)
    Аудио Rus: (MPEG Layer 3, 48, 0 kHz, 2 ch, 192 kb/s) - многоголосый закадровый
    Аудио Eng: (MPEG Layer 3, 48, 0 kHz, 2 ch, 192 kb/s) - оригинал
    Общее
    Полное имя : D: Олимп (сезон любимого сериала 1) Olympus (2015) HDTVRip - BaibaKoOlympus.s01e01.HDTVRip.XviD.Rus.Eng.BaibaKo.tv.avi
    Формат : AVI
    Формат/Информация : Audio Video Interleave
    Размер файла : 590 Мбайт
    Продолжительность : 43 м.
    Общий поток : 1911 Кбит/сек
    Программа кодирования : VirtualDubMod 1.5.10.2 (build 2540/release)
    Библиотека кодирования : VirtualDubMod build 2540/release
    Видео
    Идентификатор : 0
    Формат : MPEG-4 Visual
    Профиль формата : Advanced Simple@L5
    Параметр BVOP формата : 2
    Параметр QPel формата : Нет
    Параметр GMC формата : Без точки перехода
    Параметр матрицы формата : Default (H.263)
    Идентификатор кодека : XVID
    Идентификатор кодека/Подсказка : XviD
    Продолжительность : 43 м.
    Битрейт : 1514 Кбит/сек
    Ширина : 720 пикселей
    Высота : 400 пикселей
    Соотношение сторон : 16: 9
    Частота кадров : 23, 976 кадра/сек
    Цветовое пространство : YUV
    Субдискретизация насыщенности : 4: 2: 0
    Битовая глубина : 8 бит
    Тип развёртки : Прогрессивная
    Метод сжатия : С потерями
    Бит/(Пиксели*Кадры) : 0.219
    Размер потока : 467 Мбайт (79%)
    Библиотека кодирования : XviD 1.2.1 (UTC 2008-12-04)
    Аудио #1
    Идентификатор : 1
    Формат : MPEG Audio
    Версия формата : Version 1
    Профиль формата : Layer 3
    Режим : Joint stereo
    Расширение режима : MS Stereo
    Идентификатор кодека : 55
    Идентификатор кодека/Подсказка : MP3
    Продолжительность : 43 м.
    Вид битрейта : Постоянный
    Битрейт : 192 Кбит/сек
    Каналы : 2 канала
    Частота : 48, 0 КГц
    Метод сжатия : С потерями
    Размер потока : 59, 3 Мбайт (10%)
    Выравнивание : Соединение по промежуткам
    Продолжительность промежутка : 42 мс. (1, 00 видеокадр)
    Время предзагрузки промежутка : 504 мс.
    Аудио #2
    Идентификатор : 2
    Формат : MPEG Audio
    Версия формата : Version 1
    Профиль формата : Layer 3
    Режим : Joint stereo
    Расширение режима : MS Stereo
    Идентификатор кодека : 55
    Идентификатор кодека/Подсказка : MP3
    Продолжительность : 43 м.
    Вид битрейта : Постоянный
    Битрейт : 192 Кбит/сек
    Каналы : 2 канала
    Частота : 48, 0 КГц
    Метод сжатия : С потерями
    Размер потока : 59, 3 Мбайт (10%)
    Выравнивание : Соединение по промежуткам
    Продолжительность промежутка : 42 мс. (1, 00 видеокадр)
    Время предзагрузки промежутка : 504 мс.


    Скриншоты для ознакомления




    Онлайн видео Олимп



    Олимп/Olympus (2015) HDTVRip (сезон 1, серии 1 из 13) BaibaKo (обновляемая)
    загрузка...
    Рейтинг →
     (голосов: 1, оценка 5/5, голосовать можно 1 раз )

    Другие торренты по теме:

  • Olympus 2207 / Олимп 2207 (2014) [Ru] (1.03hf) Mod Nebesa Games скачать через торрент бесплатно
  • Тимати - Олимп (2016) [AAC|WEB-DL|256 кб / с]<Rap, Hip-Hop>
  • Восхождение на Олимп (2016) WEB-DLRip (серии 1-8 из 8)
  • Восхождение на Олимп (2015) WEB-DLRip [H.264] (серии 1-8 из 8)
  • Олимп / Olympus (2015) BDRip [H.264 / 720p] (сезон 1, серии 1-13 из 13) BaibaKo [AD]
  • Восхождение на Олимп (2015) WEB-DL [H.264 / 1080p-LQ] (серии 1-8 из 8)


    • Комментарии (0):

      Информация

      Информация

        Посетители, находящиеся в группе Гости, не могут оставлять комментарии в данной новости.

        ↓ Меню




        ↓ Опрос

        Вы добавили сайт в закладки?
        Да
        Нет


        Top 10 за месяц (Фильмы)