.
Авторизация | Регистрация
Хочешь лучшие торренты? Добавь свой email!
Добавить

Торрент скачать бесплатно

» » Чародей: Страна Великого Дракона / Spellbinder: Land of the Dragon Lord (1997) DVDRip [H.264] (Сезон 1, серии 1-26 из 26) скачать через торрент бесплатно




    Чародей: Страна Великого Дракона / Spellbinder: Land of the Dragon Lord (1997) DVDRip [H.264] (Сезон 1, серии 1-26 из 26) скачать через торрент бесплатно

    Опубликовал: Админ | Дата: 3-04-2015, 04:00 | Просмотров: 521

    Производство: Австралия, Польша, Китай, Film Australia, Film Victoria, Nine Network Australia, Film Australia Southern Star, Shanghai Film Studios
    Жанр: Фантастика, Фэнтези, Семейный, Приключения
    Режиссер: Ноель Прис

    Актеры
    Лорен Хьюитт, Хезер Митчелл, Леонард Фунг, Энтони Вон, Райан Квонтен, Ленор Смит, Питер О’Брайен

    Описание фильма

    Кэти Морган — талантливая и одарённая богатым воображением 14-летняя девочка проводила летние каникулы вместе со своими родителями, Вики и Карлом, и братом Джошем отдыхая на природе вдали от крупных городов и шумных автомагистралей.
    Однажды, гуляя по окрестностям, Кэти нашла таинственный корабль, изобретённый Меком — учёным из параллельного мира, называемого Страной Великого Дракона. Случайно девушка перемещается в мир чародеев, где в заточении находится чародейка Ашка — безжалостный и властолюбивый воин — обманом завлекшая Кэти в Страну Великого Дракона — мир будущего, где компьютер был изобретен четыреста лет назад и над всеми господствует избалованный десятилетний мальчишка-император.
    Когда Ашка предпринимает попытку завладеть этим миром, Кэти и Мек совершают путешествие во времени, пересекая при этом границы множества опасных, но увлекательных параллельных миров, чтобы спасти семью Кэти и чаще всего империю Дракона…

    Продолжительность: ~ 00: 25: 00 серия
    Качество видео: DVDRip-AVC
    Перевод: Многоголосый закадровый, профессиональный - студия Нота
    Видеокодек: AVC/H.264
    Битрейт видео: ~2311 Кбит/с
    Размер кадра: 702x576@748×576
    Аудио#1: AC3, 2 ch, 256 Кбит/с - русский
    Аудио#2: AC3, 2 ch, 192 Кбит/с - английский
    Сэмпл: Скачать
    Код:

    General
    Unique ID : 49043639097776661003322345255870077447 (0x24E576188B488417A0886727E0771A07)
    Format : Matroska
    Format version : Version 2
    File size : 496 MiB
    Duration : 24mn 48s
    Overall bit rate : 2 793 Kbps
    Movie name : Marooned In A World Of Monsters
    Encoded date : UTC 2012-07-29 13:28:21
    Writing application : mkvmerge v5.7.0 (\'The Whirlwind\') built on Jul 8 2012 19:12:28
    Writing library : libebml v1.2.2 + libmatroska v1.3.0
    Video
    ID : 1
    Format : AVC
    Format/Info : Advanced Video Codec
    Format profile :High@L3.1
    Format settings, CABAC : Yes
    Format settings, ReFrames : 8 frames
    Muxing mode : Header stripping
    Codec ID : V_MPEG4/ISO/AVC
    Duration : 24mn 48s
    Bit rate : 2 290 Kbps
    Width : 702 pixels
    Height : 576 pixels
    Display aspect ratio : 4:3
    Frame rate mode : Constant
    Frame rate : 25.000 fps
    Color space : YUV
    Chroma subsampling : 4:2:0
    Bit depth : 8 bits
    Scan type : Progressive
    Bits/(Pixel*Frame) : 0.227
    Stream size : 406 MiB (82%)
    Writing library : x264 core 125 r2200 999b753
    Encoding settings : cabac=1/ref=8/deblock=1:-1:-1/analyse=0x3:0x133/me=umh/subme=10/psy=1/psy_rd=1.00:0.15/mixed_ref=1/me_range=24/chroma_me=1/trellis=2/8x8dct=1/cqm=0/deadzone=21, 11/fast_pskip=1/chroma_qp_offset=-3/threads=5/lookahead_threads=1/sliced_threads=0/nr=0/decimate=1/interlaced=0/bluray_compat=0/constrained_intra=0/bframes=8/b_pyramid=2/b_adapt=2/b_bias=0/direct=3/weightb=1/open_gop=0/weightp=2/keyint=250/keyint_min=25/scenecut=40/intra_refresh=0/rc=crf/mbtree=0/crf=18.0/qcomp=0.60/qpmin=0/qpmax=69/qpstep=4/ip_ratio=1.40/pb_ratio=1.30/aq=1:1.00
    Default : Yes
    Forced : No
    Audio #1
    ID : 2
    Format : AC-3
    Format/Info : Audio Coding 3
    Mode extension : CM (complete main)
    Format settings, Endianness : Big
    Muxing mode : Header stripping
    Codec ID : A_AC3
    Duration : 24mn 48s
    Bit rate mode : Constant
    Bit rate : 256 Kbps
    Channel(s) : 2 channels
    Channel positions : Front: L R
    Sampling rate : 48.0 KHz
    Bit depth : 16 bits
    Compression mode : Lossy
    Stream size : 45.4 MiB (9%)
    Title : студия Нота
    Language : Russian
    Default : Yes
    Forced : No
    Audio #2
    ID : 3
    Format : AC-3
    Format/Info : Audio Coding 3
    Mode extension : CM (complete main)
    Format settings, Endianness : Big
    Muxing mode : Header stripping
    Codec ID : A_AC3
    Duration : 24mn 48s
    Bit rate mode : Constant
    Bit rate : 192 Kbps
    Channel(s) : 2 channels
    Channel positions : Front: L R
    Sampling rate : 48.0 KHz
    Bit depth : 16 bits
    Compression mode : Lossy
    Stream size : 34.1 MiB (7%)
    Title : English
    Language : English
    Default : No
    Forced : No


    Скриншоты для ознакомления




    Онлайн видео Чародей: Страна Великого Дракона



    Чародей: Страна Великого Дракона/Spellbinder: Land of the Dragon Lord (1997) DVDRip [H.264] (Сезон 1, серии 1-26 из 26)
    загрузка...
    Рейтинг →
     (голосов: 1, оценка 4/5, голосовать можно 1 раз )

    Другие торренты по теме:

  • Чародей равновесия. Тайна Сухаревой башни (2015) WEB-DLRip скачать через торрент бесплатно
  • Чародей равновесия. Тайна Сухаревой башни (2015) WEB-DLRip [H.264 / 720p-LQ] скачать через торрент бесплатно
  • Chivas 1-2-3 | Sorcerer on the Rocks | Чародей на мели [1999, OVA, 2 эп.] DVDRip 480p raw+eng скачать через торрент бесплатно
  • Лаймен Фрэнк Баум | Великий Чародей страны Оз (2003) [PDF] скачать через торрент бесплатно
  • Москаль-чародей / Москаль-чарівник (1995) SATRip [H.264] [UKR / RUS]
  • Роланд Грин, Фрида Мюррей | Чародей Киев (2016) [MP3]
  • BBC: Исаак Ньютон: Последний чародей (Последний из магов) / Isaac Newton: The Last Magician (2013) HDTV [H.264 / 1080i-LQ]


    • Комментарии (0):

      Информация

      Информация

        Посетители, находящиеся в группе Гости, не могут оставлять комментарии в данной новости.

        ↓ Меню




        ↓ Опрос

        Вы добавили сайт в закладки?
        Да
        Нет


        Top 10 за месяц (Фильмы)