.
Авторизация | Регистрация
Хочешь лучшие торренты? Добавь свой email!
Добавить

Торрент скачать бесплатно

» » Пропавший без вести / The Missing (2014) BDRip [720p] (Сезон 1, серии 1-3 из 8) (Amedia) (обновляемая) скачать через торрент бесплатно




    Пропавший без вести / The Missing (2014) BDRip [720p] (Сезон 1, серии 1-3 из 8) (Amedia) (обновляемая) скачать через торрент бесплатно

    Опубликовал: Админ | Дата: 1-04-2015, 13:00 | Просмотров: 97

    Производство: Великобритания, США
    Жанр: Драма, криминал, детектив
    Перевод: Профессиональный многоголосый закадровый -Amedia
    Вид субтитров: Вшитые отключаемые
    Язык субтитров: Русский, английский
    Режиссер: Том Шенклэнд

    Актеры
    Джеймс Несбитт, Фрэнсис О’Коннор, Чеки Карио, Джейсон Флеминг, Эмили Декьенн, Саид Тагмауи, Титус Де Вогдт, Эрик Годон, Аршер Али, Анастасия Хилл и др.

    Описание

    Во время беспорядков после финала чемпионата мира по футболу во Франции Тони и Эмили теряют своего сына Оливера. Спустя 8 лет после таинственного исчезновения мальчика Тони возобновляет поиски, прибегая к помощи частного детектива. Полицейское расследование давно закончено, свидетелей нет, а улики весьма сомнительны. Но, возможно, Оливер ещё жив. А это значит, что его родители не остановятся ни перед чем, пока не вернут сына домой.
    СЭМПЛ
    Продолжительность: ~ 00: 59: 00 серия
    Качество видео: BDRip 720p
    Формат: MKV
    Видео: 1280x720 (16: 9), 25 fps, MPEG-4 AVC/H.264 ~7213 Kbps, ~0.313 bit/pixel
    Аудио Rus: AC3, 192 kbps, 2 ch, 48 kHz
    Аудио Eng: AC3, 192 kbps, 2 ch, 48 kHz
    Общее
    The Missing - Пропавший без вести. Сезон 1. Amedia. В ногах правды нет, сказал кто то из толпы, к чему не понятно. 720pThe.Missing.S01E01.BDRip.720p.Amedia.mkv
    Формат : Matroska
    Версия формата : Version 4/Version 2
    Размер файла : 3, 19 Гбайт
    Продолжительность : 58 м.
    Общий поток : 7751 Кбит/сек
    Дата кодирования : UTC 2015-03-31 07: 36: 40
    Программа кодирования : mkvmerge v6.9.1 (\'Blue Panther\') 64bit built on Apr 18 2014 18: 23: 38
    Библиотека кодирования : libebml v1.3.0 + libmatroska v1.4.1
    Видео
    Идентификатор : 1
    Формат : AVC
    Формат/Информация : Advanced Video Codec
    Профиль формата : High@L4.1
    Параметр CABAC формата : Да
    Параметр ReFrames формата : 9 кадров
    Идентификатор кодека : V_MPEG4/ISO/AVC
    Продолжительность : 58 м.
    Битрейт : 7213 Кбит/сек
    Ширина : 1280 пикселей
    Высота : 720 пикселей
    Соотношение сторон : 16: 9
    Режим частоты кадров : Постоянный
    Частота кадров : 25, 000 кадров/сек
    Цветовое пространство : YUV
    Субдискретизация насыщенности : 4: 2: 0
    Битовая глубина : 8 бит
    Тип развёртки : Прогрессивная
    Бит/(Пиксели*Кадры) : 0.313
    Размер потока : 2, 97 Гбайт (93%)
    Библиотека кодирования : x264 core 142 r2479 dd79a61
    Настройки программы : cabac=1/ref=9/deblock=1: -3: -3/analyse=0x3: 0x113/me=umh/subme=10/psy=1/psy_rd=1.00: 0.00/mixed_ref=1/me_range=24/chroma_me=1/trellis=2/8x8dct=1/cqm=0/deadzone=21, 11/fast_pskip=1/chroma_qp_offset=-2/threads=6/lookahead_threads=1/sliced_threads=0/nr=0/decimate=1/interlaced=0/bluray_compat=0/constrained_intra=0/bframes=8/b_pyramid=2/b_adapt=2/b_bias=0/direct=1/weightb=1/open_gop=0/weightp=2/keyint=250/keyint_min=25/scenecut=40/intra_refresh=0/rc_lookahead=60/rc=crf/mbtree=0/crf=15.0/qcomp=0.60/qpmin=0/qpmax=69/qpstep=4/vbv_maxrate=62500/vbv_bufsize=78125/crf_max=0.0/nal_hrd=none/filler=0/ip_ratio=1.40/pb_ratio=1.30/aq=1: 0.80
    Язык : English
    Default : Да
    Forced : Нет
    Основные цвета : BT.709
    Характеристики трансфера : BT.709
    Коэффициенты матрицы : BT.709
    colour_range : Limited
    Аудио #1
    Идентификатор : 2
    Формат : AC-3
    Формат/Информация : Audio Coding 3
    Расширение режима : CM (complete main)
    Параметр Endianness формата : Big
    Идентификатор кодека : A_AC3
    Продолжительность : 58 м.
    Вид битрейта : Постоянный
    Битрейт : 192 Кбит/сек
    Каналы : 2 канала
    Расположение каналов : Front: L R
    Частота : 48, 0 КГц
    Битовая глубина : 16 бит
    Метод сжатия : С потерями
    Задержка видео : -80 мс.
    Размер потока : 81, 0 Мбайт (2%)
    Язык : Russian
    Default : Да
    Forced : Нет
    Аудио #2
    Идентификатор : 3
    Формат : AC-3
    Формат/Информация : Audio Coding 3
    Расширение режима : CM (complete main)
    Параметр Endianness формата : Big
    Идентификатор кодека : A_AC3
    Продолжительность : 58 м.
    Вид битрейта : Постоянный
    Битрейт : 192 Кбит/сек
    Каналы : 2 канала
    Расположение каналов : Front: L R
    Частота : 48, 0 КГц
    Битовая глубина : 16 бит
    Метод сжатия : С потерями
    Задержка видео : -80 мс.
    Размер потока : 81, 0 Мбайт (2%)
    Язык : English
    Default : Нет
    Forced : Нет
    Текст #1
    Идентификатор : 4
    Формат : UTF-8
    Идентификатор кодека : S_TEXT/UTF8
    Идентификатор кодека/Информация : UTF-8 Plain Text
    Язык : Russian
    Default : Нет
    Forced : Нет
    Текст #2
    Идентификатор : 5
    Формат : UTF-8
    Идентификатор кодека : S_TEXT/UTF8
    Идентификатор кодека/Информация : UTF-8 Plain Text
    Язык : English
    Default : Нет
    Forced : Нет


    Скриншоты для ознакомления




    Онлайн видео Пропавший без вести



    Пропавший без вести/The Missing (2014) BDRip [720p] (Сезон 1, серии 1-3 из 8) (Amedia) (обновляемая)
    загрузка...
    Рейтинг →
     (голосов: 1, оценка 4/5, голосовать можно 1 раз )

    Другие торренты по теме:

  • Пропавший без вести / The Missing (2014) HDTVRip [H.264 / 720p-LQ] (Сезон 1, серии 1-4 из 8) (Victory-Films) (обновляемая) скачать через торрент бесплатно
  • Пропавший без вести / The Missing (2014) BDRip (сезон 1, серии 1-4 из 8) Amedia (обновляемая) скачать через торрент бесплатно
  • Пропавший без вести (2013) HDTVRip (серии 1-4 из 4)
  • Пропавший без вести / The Missing (2016) HDTVRip [H.264 / 720p-LQ] (сезон 2, серии 1-8 из 8) (Studio Victory-Films)
  • Пропавший без вести. Второе дыхание (2017) HDTV [H.264 / 1080i-LQ] (сезон 2, серии 1-2 из 12) (обновляемая)
  • Пропавший без вести. Второе дыхание (2017) SATRip [H.264] (сезон 2, серии 1-12 из 12)
  • Пропавший без вести. Второе дыхание (2017) HDTVRip (сезон 2, серии 1-12 из 12)
  • Пропавший без вести / Missing (1981) DVDRip


    • Комментарии (0):

      Информация

      Информация

        Посетители, находящиеся в группе Гости, не могут оставлять комментарии в данной новости.

        ↓ Меню




        ↓ Опрос

        Вы добавили сайт в закладки?
        Да
        Нет


        Top 10 за месяц (Фильмы)