.
Авторизация | Регистрация
Хочешь лучшие торренты? Добавь свой email!
Добавить

Торрент скачать бесплатно

» » Фарца (2015) HDTVRip (серии 1-4 из 8) (обновляемая) скачать через торрент бесплатно




    Фарца (2015) HDTVRip (серии 1-4 из 8) (обновляемая) скачать через торрент бесплатно

    Опубликовал: Админ | Дата: 1-04-2015, 13:00 | Просмотров: 128

    Производство: Продюсерский центр Среда, Россия
    Жанр: драма
    Режиссер: Егор Баранов

    Актеры
    Александр Петров (III), Алексей Весёлкин мл., Филипп Горенштейн, Максим Емельянов, Зоя Бербер, Таисия Вилкова, Евгений Стычкин, Ева Андреевайте, Алексей Серебряков, Александр Яценко, Екатерина Волкова, Елена Антипова, Алексей Кирющенко, Тимофей Трибунцев, Людмила Аринина, Александр Ляпин, Даниэль Аргаман, Евгений Цыганов, Даниил Страхов, Давид Петросян

    Описание фильма

    События происходят с 1961 года по 1991 год. Самое интересное в это истории, что об этом Шварценеггер ничего не знал. В центре истории — дружба четырех парней. В 1 сезон любимого сериалае им 20 лет, они дружат с детства и ради дружбы готовы на все. У всех свои мечты, но обстоятельства сложатся таким образом, что они будут вынуждены окунуться во все виды подпольной экономики начала 60х. И, что самое ужасное, — они успешны в этом деле, у них все получается. И чем лучше у них получается фарцовка, тем дальше герои от воплощения своих настоящих мечтаний.

    Дата российской премьеры: 30.03.2015
    Продолжительность: ~ 00: 52: 00 серия
    Качество видео: HDTVRip
    Видеокодек: Xvid
    Битрейт видео: ~1800 Kbps
    Размер кадра: 720x400 (16: 9)
    Аудиокодек: AC3
    Битрейт аудио: 2 ch, 192 Kbps
    Код:
    Общее
    Полное имя : E:DOWNLOADSФарца (2015) HDTVRipФарца - 01 серия.avi
    Формат : AVI
    Формат/Информация : Audio Video Interleave
    Размер файла : 733 Мбайт
    Продолжительность : 51 м.
    Общий поток : 2001 Кбит/сек
    Программа кодирования : VirtualDubMod 1.5.10.3 |www.virtualdub-fr.org|| (build 2550/release)
    Библиотека кодирования : VirtualDubMod build 2550/release
    Видео
    Идентификатор : 0
    Формат : MPEG-4 Visual
    Профиль формата : Advanced Simple@L5
    Параметр BVOP формата : 1
    Параметр QPel формата : Нет
    Параметр GMC формата : Без точки перехода
    Параметр матрицы формата : Выборочная
    Идентификатор кодека : XVID
    Идентификатор кодека/Подсказка : XviD
    Продолжительность : 51 м.
    Битрейт : 1799 Кбит/сек
    Ширина : 720 пикселей
    Высота : 400 пикселей
    Соотношение сторон : 16:9
    Частота кадров : 25, 000 кадров/сек
    Цветовое пространство : YUV
    Субдискретизация насыщенности : 4:2:0
    Битовая глубина : 8 бит
    Тип развёртки : Прогрессивная
    Метод сжатия : С потерями
    Бит/(Пиксели*Кадры) : 0.250
    Размер потока : 659 Мбайт (90%)
    Библиотека кодирования : XviD 73
    Аудио
    Идентификатор : 1
    Формат : AC-3
    Формат/Информация : Audio Coding 3
    Расширение режима : CM (complete main)
    Параметр Endianness формата : Big
    Идентификатор кодека : 2000
    Продолжительность : 51 м.
    Вид битрейта : Постоянный
    Битрейт : 192 Кбит/сек
    Каналы : 2 канала
    Расположение каналов : Front: L R
    Частота : 48, 0 КГц
    Битовая глубина : 16 бит
    Метод сжатия : С потерями
    Размер потока : 70, 3 Мбайт (10%)
    Выравнивание : Разделение по промежуткам
    Продолжительность промежутка : 40 мс. (1, 00 видеокадр)
    Время предзагрузки промежутка : 500 мс.


    Скриншоты для ознакомления




    Онлайн видео Фарца (2015) HDTVRip (серии 1



    Фарца (2015) HDTVRip (серии 1-4 из 8) (обновляемая)
    загрузка...
    Рейтинг →
     (голосов: 1, оценка 5/5, голосовать можно 1 раз )

    Другие торренты по теме:

  • Фарца (2015) DVB [H.264] (серии 1-2 из 8) (обновляемая) скачать через торрент бесплатно
  • Фарца (2015) WEBRip (сезон 1, серии 1-4 из 8) (обновляемая) скачать через торрент бесплатно
  • Фарца (2015) HDTV [H.264 / 1080i-LQ] (1 сезон, серии 1-2 из 8) (обновляемая) скачать через торрент бесплатно
  • Фарца (2015) WEBRip [H.264] (серии 1-4 из 8) [mp4|1680x1048] (обновляемая) скачать через торрент бесплатно
  • Фарца (2015) HDTVRip [H.264 / 720p] (серии 1-2 из 8) (обновляемая) скачать через торрент бесплатно


    • Комментарии (0):

      Информация

      Информация

        Посетители, находящиеся в группе Гости, не могут оставлять комментарии в данной новости.

        ↓ Меню




        ↓ Опрос

        Вы добавили сайт в закладки?
        Да
        Нет


        Top 10 за месяц (Фильмы)