.
Авторизация | Регистрация
Хочешь лучшие торренты? Добавь свой email!
Добавить

Торрент скачать бесплатно

» » Самба / Samba (2014) BDRip [H.264 / 1080p] скачать через торрент бесплатно




    Самба / Samba (2014) BDRip [H.264 / 1080p] скачать через торрент бесплатно

    Опубликовал: Админ | Дата: 1-04-2015, 13:00 | Просмотров: 125

    Производство: Франция/Quad Productions, Ten Films, Gaumont
    Жанр: драма, комедия
    Режиссер: Оливье Накаш, Эрик Толедано

    Актеры
    Николя Дюваль-Адассовски, Лорен Зэйтун, Ян Зеноу Актеры: Омар Си, Шарлотта Генсбур, Тахар Рахим, Изиа Ижлен, Исака Савадого, Элен Венсан,
    Янгар Фолл, Кристиана Милле, Жаклин Жеаннеф, Лия Кебе и др.

    Описание фильма

    Самба — сенегалец, живущий во Франции десять лет, но неудачи все еще преследуют его — он не может устроиться на хорошее место работы. Элис — руководитель высшего звена, буквально сгорела на работе. Самба всеми силами пытается получить документы, чтобы трудоустроиться, а Алиса ищет спасения от пустоты собственной жизни. Каждый из них ищет выход из сложившегося тупика, пока в один прекрасный день их судьбы не пересекаются.
    Между смехом и слезами их история прокладывает себе дорогу к счастью.

    Дата мировой премьеры: 7 сентября 2014
    Дата российской премьеры: 19 марта 2015, Top Film Distribution
    Продолжительность: 01: 58: 51
    Качество видео: BDRip
    Перевод: дублированный (лицензия)
    Субтитры: вшитые отключаемые
    Язык субтитров: французские
    Видео: MPEG-4 AVC/H.264 | 12.8 Mбит/с | 1920x1038
    Аудио 1: AC3 5.1 | 448 Кбит/с | дублированный
    Аудио 2: AC3 5.1 | 640 Кбит/с | французский
    Код:

    Общее
    Уникальный идентификатор : 178873637708604428452144411405366860619 (0x8691CF3C352FC2C08F6860A0F2781B4B)
    Полное имя : D:NNM-ClubSamba BDRip [1080p].mkv
    Формат : Matroska
    Версия формата : Version 4/Version 2
    Размер файла : 11, 8 Гбайт
    Продолжительность : 1 ч. 58 м.
    Общий поток : 14, 2 Мбит/сек
    Название фильма : Samba 2014 BDRip [1080p]
    Дата кодирования : UTC 2015-03-28 14:03:24
    Программа кодирования : mkvmerge v7.7.0 (\'Six Voices\') 32bit built on Feb 28 2015 23:23:00
    Библиотека кодирования : libebml v1.3.1 + libmatroska v1.4.2
    _STATISTICS_WRITING_APP : mkvmerge v7.7.0 (\'Six Voices\') 32bit built on Feb 28 2015 23:23:00
    _STATISTICS_WRITING_DATE_UTC : 2015-03-28 14:03:24
    _STATISTICS_TAGS : BPS DURATION NUMBER_OF_FRAMES NUMBER_OF_BYTES
    DURATION : 01:58:07.709000000
    NUMBER_OF_FRAMES : 1729
    NUMBER_OF_BYTES : 47196
    Видео
    Идентификатор : 1
    Формат : AVC
    Формат/Информация : Advanced Video Codec
    Профиль формата :High@L4.1
    Параметр CABAC формата : Да
    Параметр ReFrames формата : 4 кадра
    Идентификатор кодека : V_MPEG4/ISO/AVC
    Продолжительность : 1 ч. 58 м.
    Битрейт : 12, 8 Мбит/сек
    Ширина : 1920 пикселей
    Высота : 1038 пикселей
    Соотношение сторон : 1, 85:1
    Режим частоты кадров : Постоянный
    Частота кадров : 24, 000 кадра/сек
    Цветовое пространство : YUV
    Субдискретизация насыщенности : 4:2:0
    Битовая глубина : 8 бит
    Тип развёртки : Прогрессивная
    Бит/(Пиксели*Кадры) : 0.267
    Размер потока : 10, 6 Гбайт (90%)
    Заголовок : Samba 2014 BDRip [1080p]
    Библиотека кодирования : x264 core 146 r2538 121396c
    Настройки программы : cabac=1/ref=4/deblock=1:-3:-3/analyse=0x3:0x133/me=umh
    / subme=10/psy=1/psy_rd=1.05:0.00/mixed_ref=1/me_range=16/chroma_me=1/trellis=2/8x8dct=1 /
    cqm=0/deadzone=21, 11/fast_pskip=0/chroma_qp_offset=-2/threads=12/lookahead_threads=2/sliced_threads=0
    / nr=0/decimate=0/interlaced=0/bluray_compat=0/constrained_intra=0/bframes=9/b_pyramid=2/b_adapt=2 /
    b_bias=0/direct=3/weightb=1/open_gop=0/weightp=2/keyint=250/keyint_min=24/scenecut=40/intra_refresh=0 /
    rc=crf/mbtree=0/crf=17.0/qcomp=0.60/qpmin=0/qpmax=69/qpstep=4/ip_ratio=1.40/pb_ratio=1.30/aq=3:0.70/zones=783, 1211, crf=11/11627, 11691, crf=11/32341, 32413, crf=11/39263, 39470, crf=13/39671, 39789, crf=13/40446, 40824, crf=11/
    84988, 85122, crf=13/85296, 85415, crf=13/85685, 85859, crf=13/86332, 86432, crf=13/88016, 88103, crf=13/88259, 88356, crf=13/
    88761, 88798, crf=13/88861, 88902, crf=13/105777, 105939, crf=11/106093, 106159, crf=11/106263, 106398, crf=11/
    106527, 106799, crf=11/107779, 107880, crf=11/107960, 108011, crf=13/108068, 108217, crf=13/108316, 108466, crf=13/
    108559, 108690, crf=13/108788, 109015, crf=13/109083, 109144, crf=13/110814, 111068, crf=13
    Язык : French
    Default : Да
    Forced : Нет
    _STATISTICS_WRITING_APP : mkvmerge v7.7.0 (\'Six Voices\') 32bit built on Feb 28 2015 23:23:00
    _STATISTICS_WRITING_DATE_UTC : 2015-03-28 14:03:24
    _STATISTICS_TAGS : BPS DURATION NUMBER_OF_FRAMES NUMBER_OF_BYTES
    DURATION : 01:58:51.000000000
    NUMBER_OF_FRAMES : 171144
    NUMBER_OF_BYTES : 11654169271
    Аудио #1
    Идентификатор : 2
    Формат : AC-3
    Формат/Информация : Audio Coding 3
    Расширение режима : CM (complete main)
    Параметр Endianness формата : Big
    Идентификатор кодека : A_AC3
    Продолжительность : 1 ч. 58 м.
    Вид битрейта : Постоянный
    Битрейт : 448 Кбит/сек
    Каналы : 6 каналов
    Расположение каналов : Front: L C R, Side: L R, LFE
    Частота : 48, 0 КГц
    Битовая глубина : 16 бит
    Метод сжатия : С потерями
    Размер потока : 381 Мбайт (3%)
    Заголовок : Дублированный
    Язык : Russian
    Default : Да
    Forced : Нет
    Аудио #2
    Идентификатор : 3
    Формат : AC-3
    Формат/Информация : Audio Coding 3
    Расширение режима : CM (complete main)
    Параметр Endianness формата : Big
    Идентификатор кодека : A_AC3
    Продолжительность : 1 ч. Самое интересное в это истории, что об этом Супермен ничего не знал. 58 м.
    Вид битрейта : Постоянный
    Битрейт : 640 Кбит/сек
    Каналы : 6 каналов
    Расположение каналов : Front: L C R, Side: L R, LFE
    Частота : 48, 0 КГц
    Битовая глубина : 16 бит
    Метод сжатия : С потерями
    Размер потока : 544 Мбайт (5%)
    Заголовок : Французский
    Язык : French
    Default : Нет
    Forced : Нет
    Текст
    Идентификатор : 4
    Формат : UTF-8
    Идентификатор кодека : S_TEXT/UTF8
    Идентификатор кодека/Информация : UTF-8 Plain Text
    Заголовок : SDH
    Язык : French
    Default : Нет
    Forced : Нет
    Меню
    00:00:00.000 : en:00:00:00.000
    00:11:12.958 : en:00:11:12.958
    00:19:54.833 : en:00:19:54.833
    00:31:40.417 : en:00:31:40.417
    00:40:49.750 : en:00:40:49.750
    00:53:26.500 : en:00:53:26.500
    01:01:21.208 : en:01:01:21.208
    01:12:46.958 : en:01:12:46.958
    01:23:59.667 : en:01:23:59.667
    01:33:05.542 : en:01:33:05.542
    01:42:50.917 : en:01:42:50.917
    01:52:51.625 : en:01:52:51.625

    Скриншоты для ознакомления



    загрузка...
    Рейтинг →
     (голосов: 1, оценка 5/5, голосовать можно 1 раз )

    Другие торренты по теме:

  • Самба / Samba (2014) BDRip [720p] [Fr] скачать через торрент бесплатно
  • Самба / Samba (2014) HDRip [576p] iPad [Line] скачать через торрент бесплатно
  • Самба / Samba (2014) BDRip [720p] ATV скачать через торрент бесплатно
  • Самба / Samba (2014) BDRip [1080p] ATV скачать через торрент бесплатно
  • Самба / Samba (2014) AC3 5.1 скачать через торрент бесплатно
  • Самба / Samba (2014) BDRemux [H.264 / 1080p] [RUS Transfer]


    • Комментарии (0):

      Информация

      Информация

        Посетители, находящиеся в группе Гости, не могут оставлять комментарии в данной новости.

        ↓ Меню




        ↓ Опрос

        Вы добавили сайт в закладки?
        Да
        Нет


        Top 10 за месяц (Фильмы)