.
Авторизация | Регистрация
Хочешь лучшие торренты? Добавь свой email!
Добавить

Торрент скачать бесплатно

» » Муж (Супруг) / Il marito (1958) DVD5 скачать через торрент бесплатно




    Муж (Супруг) / Il marito (1958) DVD5 скачать через торрент бесплатно

    Опубликовал: Админ | Дата: 1-04-2015, 13:00 | Просмотров: 144

    Производство: Италия, Испания (Fortunia Film)
    Жанр: Комедия

    Описание фильма

    Брак Альберто разваливается. Жена злобствует, как фурия, поощряемая замужней сестричкой и властной мамашей. Кроме того, у Альберто начинаются финансовые проблемы. Тогда несчастный муж решает найти богатую вдову и стать жиголо...
    Режиссер: Нанни Лой, Фернандо Паласиос, Джанни Пуччини

    Актеры
    Альберто Сорди, Аврора Баутиста, Луиджи Този, Альберто Де Амичис, Карло Нинки, Делия Луна, Розита Писано, Хулия Каба Альба
    Продолжительность: 01: 22: 23
    Качество видео: DVD5
    Перевод: Многоголосый закадровый (5-й канал СПб)

    Качество видео: DVD5
    Видео: PAL 4: 3 (720x576) VBR, ~5449 Кбит/сек, 25, 00 кадр/сек
    Аудио#1: Русский (Dolby AC3, 2/0ch, 192Kbps)
    Аудио#2: Итальянский (Dolby AC3, 2/0ch, 192Kbps)
    Субтитры: Нет
    Дополнительные материалы: Трейлер к фильму, фотогалерея
    Сэмпл: Ссылка
    DVD скачен в сети. К оригинальной итальянской звуковой дорожке добавлен русский профессиональный многоголосый перевод (5-й канал СПб). Меню самодельное, статичное, озвученное.
    Title:
    Size: 3.69 Gb ( 3 869 892 KBytes ) - DVD-5
    Enabled regions: 1, 2, 3, 4, 5, 6, 7, 8
    VTS_01 :
    Play Length: 01: 22: 23+00: 04: 08
    Video: PAL 4: 3 (720x576) VBR
    Audio:
    Russian (Dolby AC3, 2 ch)
    Italiano (Dolby AC3, 2 ch)
    Общее
    Полное имя : F: NNM-Club.ru_Il.marito.1958.DVD5_maroder1VIDEO_TSVTS_01_1.VOB
    Формат : MPEG-PS
    Размер файла : 1024 Мбайт
    Продолжительность : 24 м.
    Режим общего битрейта : Переменный
    Общий поток : 5952 Кбит/сек
    Видео
    Идентификатор : 224 (0xE0)
    Формат : MPEG Video
    Версия формата : Version 2
    Профиль формата : Main@Main
    Параметр BVOP формата : Да
    Параметр матрицы формата : Выборочная
    Параметр GOP формата : M=3, N=12
    Продолжительность : 24 м.
    Вид битрейта : Переменный
    Битрейт : 5449 Кбит/сек
    Максимальный битрейт : 8000 Кбит/сек
    Ширина : 720 пикселей
    Высота : 576 пикселей
    Соотношение сторон : 4: 3
    Частота кадров : 25, 000 кадров/сек
    Стандарт вещания : PAL
    Цветовое пространство : YUV
    Субдискретизация насыщенности : 4: 2: 0
    Битовая глубина : 8 бит
    Тип развёртки : Чересстрочная
    Порядок развёртки : Верхнее поле первое
    Метод сжатия : С потерями
    Бит/(Пиксели*Кадры) : 0.526
    Размер потока : 938 Мбайт (92%)
    Аудио #1
    Идентификатор : 189 (0xBD)-128 (0x80)
    Формат : AC-3
    Формат/Информация : Audio Coding 3
    Расширение режима : CM (complete main)
    Параметр Endianness формата : Big
    Режим смешивания : DVD-Video
    Продолжительность : 24 м.
    Вид битрейта : Постоянный
    Битрейт : 192 Кбит/сек
    Каналы : 2 канала
    Расположение каналов : Front: L R
    Частота : 48, 0 КГц
    Битовая глубина : 16 бит
    Метод сжатия : С потерями
    Задержка видео : -80 мс.
    Размер потока : 33, 0 Мбайт (3%)
    Аудио #2
    Идентификатор : 189 (0xBD)-129 (0x81)
    Формат : AC-3
    Формат/Информация : Audio Coding 3
    Расширение режима : CM (complete main)
    Параметр Endianness формата : Big
    Режим смешивания : DVD-Video
    Продолжительность : 24 м.
    Вид битрейта : Постоянный
    Битрейт : 192 Кбит/сек
    Каналы : 2 канала
    Расположение каналов : Front: L R
    Частота : 48, 0 КГц
    Битовая глубина : 16 бит
    Метод сжатия : С потерями
    Задержка видео : -80 мс.
    Размер потока : 33, 0 Мбайт (3%)
    Меню


    Скриншоты для ознакомления




    Онлайн видео Муж (Супруг)



    Муж (Супруг)/Il marito (1958) DVD5
    загрузка...
    Рейтинг →
     (голосов: 1, оценка 4/5, голосовать можно 1 раз )

    Другие торренты по теме:

  • Муж счастливой женщины (2014) HDTVRip
  • Говорим и показываем Муж замучал (29.05.2015) SATRip скачать через торрент бесплатно
  • Идеальный муж / An Ideal Husband (1999) BDRip скачать через торрент бесплатно
  • Будущий муж моей матери / My Mothers Future Husband (2014) TVRip [EN] скачать через торрент бесплатно
  • Чужая жена и муж под кроватью (1984) DVDRip [H264] скачать через торрент бесплатно
  • Муж двух жен / Run for Your Wife (2012) HDTV [H.264 / 1080i-LQ] скачать через торрент бесплатно
  • Идеальный муж / The Perfect Husband (2014) BDRip [EN] скачать через торрент бесплатно
  • Идеальный муж / The Perfect Husband (2014) BDRip скачать через торрент бесплатно


    • Комментарии (0):

      Информация

      Информация

        Посетители, находящиеся в группе Гости, не могут оставлять комментарии в данной новости.

        ↓ Меню




        ↓ Опрос

        Вы добавили сайт в закладки?
        Да
        Нет


        Top 10 за месяц (Фильмы)