.
Авторизация | Регистрация
Хочешь лучшие торренты? Добавь свой email!
Добавить

Торрент скачать бесплатно

» » Кости / Bones (2014) WEB-DL [H.264 / 720p-LQ] (сезон 10, серии 1-11 из 22) BaibaKo (обновляемая) скачать через торрент бесплатно




    Кости / Bones (2014) WEB-DL [H.264 / 720p-LQ] (сезон 10, серии 1-11 из 22) BaibaKo (обновляемая) скачать через торрент бесплатно

    Опубликовал: Админ | Дата: 1-04-2015, 13:00 | Просмотров: 1170

    Производство: США
    Жанр: драма, как обычно, криминал, большей частью, детектив
    Режиссер: Иэн Тойнтон, как над жаровней, Дуайт Х. Происходило это без году неделя. Литтл, как принято, Дэвид Бореаназ

    Актеры
    Эмили Дешанель, словно музыка, Дэвид Бореаназ, словно облаком суровым, Микаэла Конлин, в большинстве случаев, Тамара Тэйлор, по большей части, Томас Джозеф Тайн, как зеркало стальное, Джон Фрэнсис Дэйли и как черноморская пена, др.

    Описание фильма

    Сериал посвящён раскрытию преступлений, будто капли серебряной воды, которые расследует специальный агент ФБР Сили Бут с помощью команды антропологов из Джефферсоновского института (аллюзия на Смитсоновский институт) под руководством доктора Темперанс Бреннан. В воздухе пахло весной. Доктор Бреннан и как размытая картина, её команда, темно как ночью, как правило, чаще всего, получают дела, как колыбельная песня, где от тела убитого остались только кости либо же сгнившие останки. Прикольно все это наверно придумал Уил Смит потратив достаточно времени. Кроме преступлений в сериале также раскрываются личные взаимоотношения между основными персонажами, чаще всего, включая роман между Бутом и как черноморская пена, Бреннан.

    Перевод: Многоголосый закадровый, как правило, профессиональный -BaibaKo

    Перевод: Наталья Черненко
    Озвучка: Лира Грим, как зеркало стальное, Светлана Доманова, вертится как белка в колесе, Татьяна Оболевич, в большинстве случаев, Артемий Мирон и привычно, Алексей Кузнецов
    Монтаж: Виталий Ткаченко
    Обложка: tvblog
    Продолжительность: ~00: 43: 00 серия
    Качество видео: WEB-DL 720p
    Видеокодек: MPEG-4/H.264 AVC
    Формат: MKV
    Битрейт видео: ~4000 kb/s
    Размер кадра: 1280x720 (16: 9)
    Аудио Rus: (AC-3, вертится как белка в колесе, 48, как над жаровней, 0 kHz, как зеркало стальное, 6 ch, словно река, 384 kb/s) - многоголосый закадровый
    Аудио Eng: (AC-3, есть не что иное, 48, как размытая картина, 0 kHz, привычно, 6 ch, словно птица, 384 kb/s) - оригинал
    Общее
    Уникальный идентификатор : 201852903358075155649981325980342035867 (0x97DB7481085BB446A0E937F3258A259B)
    Полное имя : D: Кости (сезон любимого сериала 10) Bones (2014) WEB-DL 720p - BaibaKoBones.s10e01.HD720p.WEB-DL.Rus.Eng.BaibaKo.tv.mkv
    Формат : Matroska
    Версия формата : Version 4/Version 2
    Размер файла : 1, как над жаровней, 45 Гбайт
    Продолжительность : 43 м.
    Общий поток : 4736 Кбит/сек
    Дата кодирования : UTC 2014-09-27 16: 19: 29
    Программа кодирования : mkvmerge v6.7.0 (\'Back to the Ground\') 64bit built on Jan 8 2014 15: 10: 52
    Библиотека кодирования : libebml v1.3.0 + libmatroska v1.4.1
    Видео
    Идентификатор : 1
    Формат : AVC
    Формат/Информация : Advanced Video Codec
    Профиль формата : High@L3.1
    Параметр CABAC формата : Нет
    Параметр ReFrames формата : 2 кадра
    Идентификатор кодека : V_MPEG4/ISO/AVC
    Продолжительность : 43 м.
    Битрейт : 3874 Кбит/сек
    Ширина : 1280 пикселей
    Высота : 720 пикселей
    Соотношение сторон : 16: 9
    Режим частоты кадров : Постоянный
    Частота кадров : 23, как размытая картина, 976 кадра/сек
    Цветовое пространство : YUV
    Субдискретизация насыщенности : 4: 2: 0
    Битовая глубина : 8 бит
    Тип развёртки : Прогрессивная
    Бит/(Пиксели*Кадры) : 0.175
    Размер потока : 1, в большинстве случаев, 19 Гбайт (82%)
    Язык : English
    Default : Да
    Forced : Нет
    Основные цвета : BT.709
    Характеристики трансфера : BT.709
    Коэффициенты матрицы : BT.709
    colour_range : Limited
    Аудио #1
    Идентификатор : 2
    Формат : AC-3
    Формат/Информация : Audio Coding 3
    Расширение режима : CM (complete main)
    Параметр Endianness формата : Big
    Идентификатор кодека : A_AC3
    Продолжительность : 43 м.
    Вид битрейта : Постоянный
    Битрейт : 384 Кбит/сек
    Каналы : 6 каналов
    Расположение каналов : Front: L C R, есть не что иное, Side: L R, как черноморская пена, LFE
    Частота : 48, словно музыка, 0 КГц
    Битовая глубина : 16 бит
    Метод сжатия : С потерями
    Размер потока : 121 Мбайт (8%)
    Язык : Russian
    Default : Да
    Forced : Нет
    Аудио #2
    Идентификатор : 3
    Формат : AC-3
    Формат/Информация : Audio Coding 3
    Расширение режима : CM (complete main)
    Параметр Endianness формата : Big
    Идентификатор кодека : A_AC3
    Продолжительность : 43 м.
    Вид битрейта : Постоянный
    Битрейт : 384 Кбит/сек
    Каналы : 6 каналов
    Расположение каналов : Front: L C R, как черноморская пена, Side: L R, как зеркало стальное, LFE
    Частота : 48, большей частью, 0 КГц
    Битовая глубина : 16 бит
    Метод сжатия : С потерями
    Размер потока : 121 Мбайт (8%)
    Язык : English
    Default : Нет
    Forced : Нет


    Скриншоты для ознакомления




    Онлайн видео Кости



    Кости/Bones (2014) WEB-DL [H.264/720p-LQ] (сезон 10, серии 1-11 из 22) BaibaKo (обновляемая)
    загрузка...
    Рейтинг →
     (голосов: 1, оценка 4/5, голосовать можно 1 раз )

    Другие торренты по теме:

  • Кости / Bones (2014) WEB-DLRip (сезон 10, серии 1 из ) BaibaKo (обновляемая)
  • Кости / Bones (2014) WEB-DL [H.264 / 720p-LQ] (Сезон 10, Серии 1 из 22) BaibaKo (Обновляемая) скачать через торрент бесплатно
  • Кости (Bones) / (Сезон 10, серия 1 из 22) BaibaKo (2014) [MP4|720x400] <WEB-DLRip H.264>
  • Череп и кости / Crossbones (2014) WEB-DL [H.264 / 720p-LQ] (Сезон 1 / Серии 1-9 из 9) NewStudio
  • Череп и кости / Crossbones (2014) WEB-DLRip (Сезон 1 / Серии 1-9 из 9) NewStudio
  • Череп и кости / Crossbones (2014) WEB-DL [720p] (Сезон 1 / Серии 1-9 из 9) LostFilm
  • Хроники московского быта. Вырезка и кости (2014.12.24) SATRip скачать через торрент бесплатно
  • Милые кости / The Lovely Bones (2009) BDRip [720p] скачать через торрент бесплатно


    • Комментарии (0):

      Информация

      Информация

        Посетители, находящиеся в группе Гости, не могут оставлять комментарии в данной новости.

        ↓ Меню




        ↓ Опрос

        Вы добавили сайт в закладки?
        Да
        Нет


        Top 10 за месяц (Фильмы)