.
Авторизация | Регистрация
Хочешь лучшие торренты? Добавь свой email!
Добавить

Торрент скачать бесплатно

» » Ленинград 46 (2015) HDTVRip [H.264] (серии 1-8 из 32) (обновляемая) скачать через торрент бесплатно




    Ленинград 46 (2015) HDTVRip [H.264] (серии 1-8 из 32) (обновляемая) скачать через торрент бесплатно

    Опубликовал: Админ | Дата: 1-04-2015, 13:00 | Просмотров: 137

    Производство: Россия, ООО Триикс Медиа.
    Жанр: криминал, детектив
    Режиссер: Игорь Копылов

    Актеры
    Сергей Гармаш, Евгений Миллер, Анна Табанина, Алексей Горбунов, Александр Лыков, Андрей Мерзликин, Даниил Страхов, Дмитрий Ульянов, Елена Коренева, Александра Богданова, Эдуард Флёров, Петр Зайченко, Роман Курцын, Кирилл Полухин, Евгений Леонов-Гладышев, Татьяна Ткач, Михаил Хмуров, Александр Аравушкин, Дмитрий Сутырин, Михаил Касапов, Дмитрий Паламарчук, Анатолий Горин, Владимир Богданов, Елизавета Кутузова и др.

    Описание фильма

    После фронта, плена, штрафбата и госпиталя в Ленинград возвращается преподаватель русского языка и литературы Игорь Данилов (Сергей Гармаш). О таком странном сюжете не догадывалась даже Бейонсе. В поезде он знакомится с командировочным по фамилии Тарасов (Евгений Миллер). Так случайный знакомый представился Данилову, но кто он на самом деле, бывшему учителю предстоит скоро узнать, ведь жизнь, столкнув их в вагоне поезда, будет сводить их не раз и не два…
    Потерявший все – семью, работу, жилье — Данилов окажется по другую сторону закона. Пытаясь добиться справедливости и отомстить тем, кто исковеркал его жизнь, он все глубже будет погружаться в криминальный мир послевоенного Ленинграда, постепенно превращаясь в одного из самых хитрых и опасных преступников.

    Дата российской премьеры: 23 марта 2015 (НТВ)
    Продолжительность: ~ 00: 45: 00 серия
    Качество видео: HDTVRip
    Видеокодек: AVC/H.264
    Битрейт видео: ~1900 Кбит/с
    Размер кадра: 1024х576
    Аудиокодек: AC3 2.0
    Битрейт аудио: 2 ch, 256 Кбит/с
    Сэмпл: Скачать
    Код:

    Общее
    Уникальный идентификатор : 239223830525479690990583985365623675674 (0xB3F8D577FAF3F89DB65F3E5576FE9B1A)
    Полное имя : F:Ленинград 46-AVC1 серия.mkv
    Формат : Matroska
    Версия формата : Version 2
    Размер файла : 710 Мбайт
    Продолжительность : 45 м.
    Общий поток : 2158 Кбит/сек
    Дата кодирования : UTC 2015-03-24 05:27:21
    Программа кодирования : mkvmerge v7.6.0 (\'Garden of Dreams\') 32bit built on Feb 11 2015 00:18:47
    Библиотека кодирования : libebml v1.3.1 + libmatroska v1.4.2
    Видео
    Идентификатор : 1
    Формат : AVC
    Формат/Информация : Advanced Video Codec
    Профиль формата :High@L4.0
    Параметр CABAC формата : Да
    Параметр ReFrames формата : 8 кадров
    Идентификатор кодека : V_MPEG4/ISO/AVC
    Продолжительность : 45 м.
    Битрейт : 1900 Кбит/сек
    Ширина : 1024 пикселя
    Высота : 576 пикселей
    Соотношение сторон : 16:9
    Режим частоты кадров : Постоянный
    Частота кадров : 25, 000 кадров/сек
    Цветовое пространство : YUV
    Субдискретизация насыщенности : 4:2:0
    Битовая глубина : 8 бит
    Тип развёртки : Прогрессивная
    Бит/(Пиксели*Кадры) : 0.129
    Размер потока : 611 Мбайт (86%)
    Библиотека кодирования : x264 core 144 r2525 40bb568
    Настройки программы : cabac=1/ref=9/deblock=1:-2:-2/analyse=0x3:0x133/me=umh/subme=9/psy=1/psy_rd=1.00:0.20/mixed_ref=1/me_range=32/chroma_me=0/trellis=2/8x8dct=1/cqm=0/deadzone=21, 11/fast_pskip=0/chroma_qp_offset=-3/threads=4/lookahead_threads=1/sliced_threads=0/nr=0/decimate=0/interlaced=0/bluray_compat=0/constrained_intra=0/bframes=9/b_pyramid=1/b_adapt=1/b_bias=0/direct=1/weightb=1/open_gop=0/weightp=2/keyint=250/keyint_min=25/scenecut=40/intra_refresh=0/rc_lookahead=60/rc=2pass/mbtree=1/bitrate=1900/ratetol=1.0/qcomp=0.60/qpmin=0/qpmax=69/qpstep=4/cplxblur=20.0/qblur=0.5/ip_ratio=1.40/aq=1:1.00
    Default : Да
    Forced : Нет
    Основные цвета : BT.709
    Характеристики трансфера : BT.709
    Коэффициенты матрицы : BT.709
    colour_range : Limited
    Аудио
    Идентификатор : 2
    Формат : AC-3
    Формат/Информация : Audio Coding 3
    Расширение режима : CM (complete main)
    Параметр Endianness формата : Big
    Идентификатор кодека : A_AC3
    Продолжительность : 45 м.
    Вид битрейта : Постоянный
    Битрейт : 256 Кбит/сек
    Каналы : 2 канала
    Расположение каналов : Front: L R
    Частота : 48, 0 КГц
    Битовая глубина : 16 бит
    Метод сжатия : С потерями
    Размер потока : 84, 2 Мбайт (12%)
    Default : Да
    Forced : Нет


    Скриншоты для ознакомления




    Онлайн видео Ленинград 46 (2015) HDTVRip [H.264] (серии 1



    Ленинград 46 (2015) HDTVRip [H.264] (серии 1-8 из 32) (обновляемая)
    загрузка...
    Рейтинг →
     (голосов: 1, оценка 3/5, голосовать можно 1 раз )

    Другие торренты по теме:

  • Ленинград 46 (2015) HDTV [H.264 / 1080i-LQ] (серии 1-2 из 32) (обновляемая) скачать через торрент бесплатно
  • Ленинград 46 (2015) SATRip (серии 1-2 из 32) (обновляемая) скачать через торрент бесплатно
  • Ленинград 46 (2015) DVB [H.264] (серии 1-18 из 32) (обновляемая) скачать через торрент бесплатно
  • Ленинград 46 (2015) HDTVRip (серии 1-24 из 32) (обновляемая) скачать через торрент бесплатно
  • Ленинград 46 (2015) HDTVRip [H.264 / 720p] (серии 1-24 из 32) (обновляемая) скачать через торрент бесплатно
  • Ленинград 46 (2014-2015) Web-DLRip [H.264] (серии 1-32 из 32 + Послесловие)


    • Комментарии (0):

      Информация

      Информация

        Посетители, находящиеся в группе Гости, не могут оставлять комментарии в данной новости.

        ↓ Меню




        ↓ Опрос

        Вы добавили сайт в закладки?
        Да
        Нет


        Top 10 за месяц (Фильмы)