.
Авторизация | Регистрация
Хочешь лучшие торренты? Добавь свой email!
Добавить

Торрент скачать бесплатно

» » Фарца (2015) DVB [H.264] (серии 1-2 из 8) (обновляемая) скачать через торрент бесплатно




    Фарца (2015) DVB [H.264] (серии 1-2 из 8) (обновляемая) скачать через торрент бесплатно

    Опубликовал: Админ | Дата: 1-04-2015, 13:00 | Просмотров: 125

    Производство: Россия, Продюсерский центр Среда
    Жанр: драма
    Режиссер: Егор Баранов

    Актеры
    Александр Петров, Филипп Горенштейн, Максим Емельянов, Алексей Весёлкин, Зоя Бербер, Таисия Вилкова, Евгений Стычкин, Иева Андреевайте, Алексей Серебряков, Александр Яценко и др.

    Описание фильма

    События происходят с 1961 года по 1991 год. В центре истории — дружба четырех парней. В 1 сезон любимого сериалае им 20 лет, они дружат с детства и ради дружбы готовы на все. У всех свои мечты, но обстоятельства сложатся таким образом, что они будут вынуждены окунуться во все виды подпольной экономики начала 60х. И, что самое ужасное, — они успешны в этом деле, у них все получается. И чем лучше у них получается фарцовка, тем дальше герои от воплощения своих настоящих мечтаний.

    Дата российской премьеры: 1 канал, 30 марта 2015
    Продолжительность: ~ 00: 51: 00 серия
    Качество видео: DVB
    Видеокодек: AVC/H.264
    Битрейт видео: ~2637 Кбит/с
    Размер кадра: 720x576@1047х576
    Аудиокодек: MP2
    Битрейт аудио: 2 ch, 192 Кбит/с
    Сэмпл: Скачать
    Код:

    Общее
    Идентификатор : 1 (0x1)
    Полное имя : C:Фарца1 серия.ts
    Формат : MPEG-TS
    Размер файла : 1, 08 Гбайт
    Продолжительность : 51 м.
    Режим общего битрейта : Переменный
    Общий поток : 2978 Кбит/сек
    Видео
    Идентификатор : 184 (0xB8)
    Идентификатор меню : 263 (0x107)
    Формат : AVC
    Формат/Информация : Advanced Video Codec
    Профиль формата :Main@L3.0
    Параметр CABAC формата : Да
    Параметр ReFrames формата : 3 кадра
    Параметр GOP формата : M=4, N=28
    Идентификатор кодека : 27
    Продолжительность : 51 м.
    Битрейт : 2637 Кбит/сек
    Ширина : 720 пикселей
    Высота : 576 пикселей
    Соотношение сторон : 16:9
    Частота кадров : 25, 000 кадров/сек
    Стандарт вещания : Component
    Цветовое пространство : YUV
    Субдискретизация насыщенности : 4:2:0
    Битовая глубина : 8 бит
    Тип развёртки : Чересстрочная
    Порядок развёртки : Верхнее поле первое
    Бит/(Пиксели*Кадры) : 0.254
    Размер потока : 979 Мбайт (89%)
    Основные цвета : BT.601 PAL
    Характеристики трансфера : BT.470 System B, BT.470 System G
    Коэффициенты матрицы : BT.601
    colour_range : Limited
    Аудио
    Идентификатор : 185 (0xB9)
    Идентификатор меню : 263 (0x107)
    Формат : MPEG Audio
    Версия формата : Version 1
    Профиль формата : Layer 2
    Идентификатор кодека : 3
    Продолжительность : 51 м.
    Вид битрейта : Постоянный
    Битрейт : 192 Кбит/сек
    Каналы : 2 канала
    Частота : 48, 0 КГц
    Метод сжатия : С потерями
    Размер потока : 71, 3 Мбайт (6%)
    Язык : Russian


    Скриншоты для ознакомления




    Онлайн видео Фарца (2015) DVB [H.264] (серии 1



    Фарца (2015) DVB [H.264] (серии 1-2 из 8) (обновляемая)
    загрузка...
    Рейтинг →
     (голосов: 1, оценка 5/5, голосовать можно 1 раз )

    Другие торренты по теме:

  • Фарца (2015) WEBRip (сезон 1, серии 1-4 из 8) (обновляемая) скачать через торрент бесплатно
  • Фарца (2015) HDTV [H.264 / 1080i-LQ] (1 сезон, серии 1-2 из 8) (обновляемая) скачать через торрент бесплатно
  • Фарца (2015) WEBRip [H.264] (серии 1-4 из 8) [mp4|1680x1048] (обновляемая) скачать через торрент бесплатно
  • Фарца (2015) HDTVRip [H.264 / 720p] (серии 1-2 из 8) (обновляемая) скачать через торрент бесплатно
  • Фарца (2015) HDTVRip (серии 1-4 из 8) (обновляемая) скачать через торрент бесплатно


    • Комментарии (0):

      Информация

      Информация

        Посетители, находящиеся в группе Гости, не могут оставлять комментарии в данной новости.

        ↓ Меню




        ↓ Опрос

        Вы добавили сайт в закладки?
        Да
        Нет


        Top 10 за месяц (Фильмы)