.
Авторизация | Регистрация
Хочешь лучшие торренты? Добавь свой email!
Добавить

Торрент скачать бесплатно

» » Уличный регулировщик / Il vigile (1960) DVDRip [H.264] скачать через торрент бесплатно




    Уличный регулировщик / Il vigile (1960) DVDRip [H.264] скачать через торрент бесплатно

    Опубликовал: Админ | Дата: 29-03-2015, 04:02 | Просмотров: 257

    Производство: Италия. Royal Film
    Жанр: Комедия
    Режиссер: Луиджи Дзампа

    Актеры
    Альберто Сорди, Лия Дзопелли, Витторио Де Сика, Сильва Кошина, Мариса Мерлини, Пьера Арико, Мара Берни, Нандо Бруно, Винченцо Таларико, Риккардо Гарроне, Франко Ди Троккьо, Карло Пизакане, Нерио Бернарди, Марио Пассанте, Джанни Соларо, Марио Рива

    Описание фильма

    Бeзрaбoтнoму Oтeллo Чeлeтти, блaгoдaря cчacтливoй cлучaйнocти и eгo нaвязчивoй нacтoйчивocти, удaeтcя пoлучить рaбoту в кaчecтвe пoлицeйcкoгo мoтoциклиcтa. Вaжнocть и прeлecть нoвoй рaбoты cмeняютcя жeлaниeм oтoмcтить зa cтрaдaния и кoмпeнcирoвaть cвoи aмбиции. Нo cудьбa Oтeллo принocит бoльшoe удивлeниe, кoгдa в oдин прeкрacный дeнь oн вcтрeчaeт нa трacce aктриcу…

    Продолжительность: 01: 40: 15
    Качество видео: DVDRip
    Перевод: Дублированный
    Язык субтитров: Русский (на не переведенные участки фильма), английский
    Вид субтитров: Вшитые отключаемые
    Видео: AVC/H.264, 704x400, ~1 792 kbps
    Аудио 1: русский, 48KHz, AC3, 2.0 ch, 192 kbps
    Аудио 2: итальянский, 48KHz, AC3, 1.0 ch, 192 kbps
    Код:

    Видео
    Идентификатор : 1
    Формат : AVC
    Формат/Информация : Advanced Video Codec
    Профиль формата :High@L3.0
    Параметр CABAC формата : Да
    Параметр ReFrames формата : 1 кадр
    Параметр GOP формата : M=1, N=13
    Идентификатор кодека : V_MPEG4/ISO/AVC
    Продолжительность : 1 ч. 40 м.
    Битрейт : 1792 Кбит/сек
    Ширина : 704 пикселя
    Высота : 400 пикселей
    Соотношение сторон : 16:9
    Режим частоты кадров : Постоянный
    Частота кадров : 25, 000 кадров/сек
    Цветовое пространство : YUV
    Субдискретизация насыщенности : 4:2:0
    Битовая глубина : 8 бит
    Тип развёртки : Прогрессивная
    Бит/(Пиксели*Кадры) : 0.255
    Размер потока : 1, 25 Гбайт (81%)
    Заголовок : Уличный регулировщик_Il vigile
    Библиотека кодирования : x264 core 130 r2274bm c832fe9
    Настройки программы : cabac=1/ref=1/deblock=1:-1:-1/analyse=0x3:0x113/me=hex/subme=2/psy=1/psy_rd=1.00:0.15/mixed_ref=0/me_range=16/chroma_me=1/trellis=0/8x8dct=1/cqm=0/deadzone=21, 11/fast_pskip=1/chroma_qp_offset=0/threads=2/lookahead_threads=2/sliced_threads=1/slices=2/nr=0/decimate=1/interlaced=0/bluray_compat=0/constrained_intra=0/bframes=0/weightp=1/keyint=250/keyint_min=25/scenecut=40/intra_refresh=0/rc=crf/mbtree=0/crf=18.8/qcomp=0.60/qpmin=0/qpmax=69/qpstep=4/ip_ratio=1.40/aq=1:1.00
    Язык : Italian
    Default : Да
    Forced : Нет
    Аудио #1
    Идентификатор : 2
    Формат : AC-3
    Формат/Информация : Audio Coding 3
    Расширение режима : CM (complete main)
    Параметр Endianness формата : Big
    Идентификатор кодека : A_AC3
    Продолжительность : 1 ч. 40 м.
    Вид битрейта : Постоянный
    Битрейт : 192 Кбит/сек
    Каналы : 2 канала
    Расположение каналов : Front: L R
    Частота : 48, 0 КГц
    Битовая глубина : 16 бит
    Метод сжатия : С потерями
    Размер потока : 138 Мбайт (9%)
    Заголовок : AC3, 2 ch, 192 kbps, 48 kHz
    Язык : Russian
    Default : Да
    Forced : Нет
    Аудио #2
    Идентификатор : 3
    Формат : AC-3
    Формат/Информация : Audio Coding 3
    Расширение режима : CM (complete main)
    Параметр Endianness формата : Big
    Идентификатор кодека : A_AC3
    Продолжительность : 1 ч. 40 м.
    Вид битрейта : Постоянный
    Битрейт : 192 Кбит/сек
    Каналы : 1 канал
    Расположение каналов : Front: C
    Частота : 48, 0 КГц
    Битовая глубина : 16 бит
    Метод сжатия : С потерями
    Размер потока : 138 Мбайт (9%)
    Заголовок : AC3, mono, 192 kbps, 48 kHz
    Язык : Italian
    Default : Нет
    Forced : Нет
    Текст #1
    Идентификатор : 4
    Формат : UTF-8
    Идентификатор кодека : S_TEXT/UTF8
    Идентификатор кодека/Информация : UTF-8 Plain Text
    Заголовок : SRT на непереводимые фрагменты
    Язык : Russian
    Default : Да
    Forced : Нет
    Текст #2
    Идентификатор : 5
    Формат : UTF-8
    Идентификатор кодека : S_TEXT/UTF8
    Идентификатор кодека/Информация : UTF-8 Plain Text
    Заголовок : SRT
    Язык : English
    Default : Нет
    Forced : Нет
    Позвольте вам представить рожденную итальянским неореализмом остроумную комедию с прекрасной актерской игрой и словно птица историей, актуальной и сегодня.


    Скриншоты для ознакомления




    Онлайн видео Уличный регулировщик



    Уличный регулировщик/Il vigile (1960) DVDRip [H.264]
    загрузка...
    Рейтинг →
     (голосов: 1, оценка 5/5, голосовать можно 1 раз )

    Другие торренты по теме:

  • Уличный воин / Street Warrior (2008) DVDRip
  • Уличный боец / Street Fighter (1994) BDRemux [1080p]
  • Эл Кавадло | Подтянитесь! Уличный фитнес (2016) [PDF]
  • Осторожно, мошенники! Уличный лохотрон (2016.11.29) SATRip
  • Уличный кот по кличке Боб / A Street Cat Named Bob (2016) WEB-DL [H.264 / 1080p-LQ] [EN / EN Sub]
  • Уличный кот по кличке Боб / A Street Cat Named Bob (2016) WEB-DL [H.264 / 1080p-LQ]
  • Уличный кот по кличке Боб / A Street Cat Named Bob (2016) WEB-DLRip
  • Уличный кот по кличке Боб / A Street Cat Named Bob (2016) WEB-DLRip [H.264] [MP4|1024x436]


    • Комментарии (0):

      Информация

      Информация

        Посетители, находящиеся в группе Гости, не могут оставлять комментарии в данной новости.

        ↓ Меню




        ↓ Опрос

        Вы добавили сайт в закладки?
        Да
        Нет


        Top 10 за месяц (Фильмы)