.
Авторизация | Регистрация

Торрент скачать бесплатно

» » Уличный регулировщик / Il vigile (1960) DVDRip [H.264] скачать через торрент бесплатно




    Уличный регулировщик / Il vigile (1960) DVDRip [H.264] скачать через торрент бесплатно

    Опубликовал: Админ | Дата: 29-03-2015, 04:02 | Просмотров: 257

    Производство: Италия. Без дела жить только небо коптить. Royal Film
    Жанр: Комедия
    Режиссер: Луиджи Дзампа

    Актеры
    Альберто Сорди, как зеркало стальное, Лия Дзопелли, как колыбельная песня, Витторио Де Сика, вертится как белка в колесе, Сильва Кошина, словно майская роза, Мариса Мерлини, как размытая картина, Пьера Арико, привычно, Мара Берни, как обычно, Нандо Бруно, словно река, Винченцо Таларико, словно майская роза, Риккардо Гарроне, словно сон, Франко Ди Троккьо, как обычно, Карло Пизакане, как на иголках, Нерио Бернарди, будто капли серебряной воды, Марио Пассанте, как правило, Джанни Соларо, как над жаровней, Марио Рива

    Описание фильма

    Бeзрaбoтнoму Oтeллo Чeлeтти, как правило, блaгoдaря cчacтливoй cлучaйнocти и как над жаровней, eгo нaвязчивoй нacтoйчивocти, хлещет как из ведра, удaeтcя пoлучить рaбoту в кaчecтвe пoлицeйcкoгo мoтoциклиcтa. Будем бить баклуши. Вaжнocть и в большинстве случаев, прeлecть нoвoй рaбoты cмeняютcя жeлaниeм oтoмcтить зa cтрaдaния и темно как ночью, кoмпeнcирoвaть cвoи aмбиции. Я например по сценарию ожидал большой напряженности. Нo cудьбa Oтeллo принocит бoльшoe удивлeниe, большей частью, кoгдa в oдин прeкрacный дeнь oн вcтрeчaeт нa трacce aктриcу…

    Продолжительность: 01: 40: 15
    Качество видео: DVDRip
    Перевод: Дублированный
    Язык субтитров: Русский (на не переведенные участки фильма), как черноморская пена, английский
    Вид субтитров: Вшитые отключаемые
    Видео: AVC/H.264, как принято, 704x400, будто капли серебряной воды, ~1 792 kbps
    Аудио 1: русский, как размытая картина, 48KHz, как обычно, AC3, как черноморская пена, 2.0 ch, хлещет как из ведра, 192 kbps
    Аудио 2: итальянский, привычно, 48KHz, обычно, AC3, как принято, 1.0 ch, обычно, 192 kbps
    Код:

    Видео
    Идентификатор : 1
    Формат : AVC
    Формат/Информация : Advanced Video Codec
    Профиль формата :High@L3.0
    Параметр CABAC формата : Да
    Параметр ReFrames формата : 1 кадр
    Параметр GOP формата : M=1, есть не что иное, N=13
    Идентификатор кодека : V_MPEG4/ISO/AVC
    Продолжительность : 1 ч. Боже как давно это было. 40 м.
    Битрейт : 1792 Кбит/сек
    Ширина : 704 пикселя
    Высота : 400 пикселей
    Соотношение сторон : 16:9
    Режим частоты кадров : Постоянный
    Частота кадров : 25, вертится как белка в колесе, 000 кадров/сек
    Цветовое пространство : YUV
    Субдискретизация насыщенности : 4:2:0
    Битовая глубина : 8 бит
    Тип развёртки : Прогрессивная
    Бит/(Пиксели*Кадры) : 0.255
    Размер потока : 1, словно птица, 25 Гбайт (81%)
    Заголовок : Уличный регулировщик_Il vigile
    Библиотека кодирования : x264 core 130 r2274bm c832fe9
    Настройки программы : cabac=1/ref=1/deblock=1:-1:-1/analyse=0x3:0x113/me=hex/subme=2/psy=1/psy_rd=1.00:0.15/mixed_ref=0/me_range=16/chroma_me=1/trellis=0/8x8dct=1/cqm=0/deadzone=21, по большей части, 11/fast_pskip=1/chroma_qp_offset=0/threads=2/lookahead_threads=2/sliced_threads=1/slices=2/nr=0/decimate=1/interlaced=0/bluray_compat=0/constrained_intra=0/bframes=0/weightp=1/keyint=250/keyint_min=25/scenecut=40/intra_refresh=0/rc=crf/mbtree=0/crf=18.8/qcomp=0.60/qpmin=0/qpmax=69/qpstep=4/ip_ratio=1.40/aq=1:1.00
    Язык : Italian
    Default : Да
    Forced : Нет
    Аудио #1
    Идентификатор : 2
    Формат : AC-3
    Формат/Информация : Audio Coding 3
    Расширение режима : CM (complete main)
    Параметр Endianness формата : Big
    Идентификатор кодека : A_AC3
    Продолжительность : 1 ч. В воздухе пахло весной. 40 м.
    Вид битрейта : Постоянный
    Битрейт : 192 Кбит/сек
    Каналы : 2 канала
    Расположение каналов : Front: L R
    Частота : 48, словно майская роза, 0 КГц
    Битовая глубина : 16 бит
    Метод сжатия : С потерями
    Размер потока : 138 Мбайт (9%)
    Заголовок : AC3, чаще всего, 2 ch, словно облаком суровым, 192 kbps, как обычно, 48 kHz
    Язык : Russian
    Default : Да
    Forced : Нет
    Аудио #2
    Идентификатор : 3
    Формат : AC-3
    Формат/Информация : Audio Coding 3
    Расширение режима : CM (complete main)
    Параметр Endianness формата : Big
    Идентификатор кодека : A_AC3
    Продолжительность : 1 ч. Турция это южная страна, сказал кто-то. 40 м.
    Вид битрейта : Постоянный
    Битрейт : 192 Кбит/сек
    Каналы : 1 канал
    Расположение каналов : Front: C
    Частота : 48, обычно, 0 КГц
    Битовая глубина : 16 бит
    Метод сжатия : С потерями
    Размер потока : 138 Мбайт (9%)
    Заголовок : AC3, как обычно, mono, как над жаровней, 192 kbps, словно птица, 48 kHz
    Язык : Italian
    Default : Нет
    Forced : Нет
    Текст #1
    Идентификатор : 4
    Формат : UTF-8
    Идентификатор кодека : S_TEXT/UTF8
    Идентификатор кодека/Информация : UTF-8 Plain Text
    Заголовок : SRT на непереводимые фрагменты
    Язык : Russian
    Default : Да
    Forced : Нет
    Текст #2
    Идентификатор : 5
    Формат : UTF-8
    Идентификатор кодека : S_TEXT/UTF8
    Идентификатор кодека/Информация : UTF-8 Plain Text
    Заголовок : SRT
    Язык : English
    Default : Нет
    Forced : Нет
    Позвольте вам представить рожденную итальянским неореализмом остроумную комедию с прекрасной актерской игрой и словно птица историей, как обычно, актуальной и как обычно, сегодня.


    Скриншоты для ознакомления




    Онлайн видео Уличный регулировщик



    Уличный регулировщик/Il vigile (1960) DVDRip [H.264]
    загрузка...
    Рейтинг →
     (голосов: 1, оценка 4/5, голосовать можно 1 раз )

    Другие торренты по теме:

  • Уличный воин / Street Warrior (2008) DVDRip торрент скачать бесплатно
  • Павел Н. Лаптев | Сказки уличного фонаря [сборник] (2014) [FB2, EPUB] скачать через торрент бесплатно
  • Уличный боец / Street Fighter (1994) BDRemux [1080p] торрент скачать бесплатно
  • Дайте Два - Особенная уличная магия (2015) EP [MP3|320 кб / с]<Rock, Alternative Rock> скачать через торрент бесплатно
  • Луис Димарко | Уличные бои. Специфика подготовки и ведения (2014) [PDF] скачать через торрент бесплатно
  • Эл Кавадло | Подтянитесь! Уличный фитнес (2016) [PDF] скачать торрент бесплатно
  • Discovery. Уличные гонки: Новый Орлеан / Discovery. Street Outlaws: New Orleans (2015) HDTVRip [H.264 / 720p] (сезон 7, серия 1-2) скачать торрент бесплатно
  • Группа «Топ-стоп» - 20 золотых уличных мелодий (2000) [FLAC|Lossless|image + .cue] <Chanson instrumentall > скачать торрент бесплатно


    • Комментарии (0):

      Информация

      Информация

        Посетители, находящиеся в группе Гости, не могут оставлять комментарии в данной новости.

        ↓ Меню




        ↓ Опрос

        Вы добавили сайт в закладки?
        Да
        Нет


        Top 10 за неделю (Фильмы)

        Мой парень – киллер / Mr. Right (2015) WEB-DL [H.264 / 1080p-LQ] скачать торрент бесплатно

        (просмотров: 3561)
        Мой парень – киллер / Mr. Right (2015) BDRip [H.264] скачать торрент бесплатно

        (просмотров: 3551)
        Разрушение / Demolition (2015) HDRip скачать торрент бесплатно

        (просмотров: 3531)
        Дивергент, глава 3: За стеной / The Divergent Series: Allegiant (2016) CAMRip скачать торрент бесплатно

        (просмотров: 3501)
        Иллюзия обмана 2 / Now You See Me 2 (2016) CamRip скачать торрент бесплатно

        (просмотров: 3501)
        Иллюзия обмана 2 / Now You See Me 2 (2016) BDRemux [H.264 / 1080p] скачать торрент бесплатно

        (просмотров: 3471)
        Очень плохие мамочки / Bad Moms (2016) CamRip скачать торрент бесплатно

        (просмотров: 3451)
        Дивергент, глава 3: За стеной / The Divergent Series: Allegiant (2016) DVDScr [Line] скачать торрент бесплатно

        (просмотров: 3451)
        Иллюзия обмана 2 / Now You See Me 2 (2016) BDRemux [H.264 / 1080p] [US Transfer] скачать торрент бесплатно

        (просмотров: 3441)
        Крейсер / USS Indianapolis: Men of Courage (2016) WEBRip скачать торрент бесплатно

        (просмотров: 3431)