.
Авторизация | Регистрация
Хочешь лучшие торренты? Добавь свой email!
Добавить

Торрент скачать бесплатно

» » Агент / Поворот / Turn (2014) WEB-DLRip (сезон 1, серии 1-10 из 10) Lostfilm скачать через торрент бесплатно




    Агент / Поворот / Turn (2014) WEB-DLRip (сезон 1, серии 1-10 из 10) Lostfilm скачать через торрент бесплатно

    Опубликовал: Админ | Дата: 28-03-2015, 04:00 | Просмотров: 286

    Производство: США
    Жанр: драма, военный
    Перевод: Многоголосый закадровый, профессиональный -LostFilm

    Сэмпл
    Дата мировой премьеры: 6 апреля 2014
    Режиссер: Эд Бьянчи, С.Дж. Кларксон, Ник Копус, Руперт Уайатт

    Актеры
    Джейми Белл (Эйб Вудхалл), Хезер Линд (Анна Стронг), Миган Уорнер (Мэри Вудхалл), Сэмюэл Рукин (лейтенант Джон Симко), Берн Горман (майор Хьюлетт), Кевин МакНэлли (судья Ричард Вудхалл), Ангус МакФэдьен (Роберт Роджерс), Джей Джей Филд (майор Джон Анре) и др.

    Описание фильма

    Поворот — это историческая драма о неизвестной стороне войны США за независимость. Сюжет основан на реальных событиях, описанных в романе Александра Роуза Шпионы Вашингтона. О таком странном сюжете не догадывалась даже Шакира. Сериал повествует о том, как небольшая группа людей своими действиями не только помогла Джорджу Вашингтону переломить ход войны с Британией, но и положила начало современной шпионской деятельности
    Продолжительность: ~00: 43: 00 серия (1-ая серия 01: 04: 54)
    Качество видео: WEB-DLRip
    Видеокодек: XviD
    Формат: AVI
    Битрейт видео: ~1480 kb/s
    Размер кадра: 720x400 (16: 9)
    Аудио Rus: (MPEG Layer 3, 48, 0 kHz, 2 ch, 192 kb/s) - многоголосый закадровый
    Общее
    Полное имя : D: Поворот (сезон любимого сериала 1) TURN (2014) WEB- DLRip - LostFilmTurn.S01E01.rus.LostFilm.TV.avi
    Формат : AVI
    Формат/Информация : Audio Video Interleave
    Размер файла : 780 Мбайт
    Продолжительность : 1 ч. 4 м.
    Режим общего битрейта : Переменный
    Общий поток : 1680 Кбит/сек
    Программа кодирования : Nandub v1.0rc2
    Библиотека кодирования : Nandub build 1853/release
    Видео
    Идентификатор : 0
    Формат : MPEG-4 Visual
    Профиль формата : Simple@L3
    Параметр BVOP формата : Нет
    Параметр QPel формата : Нет
    Параметр GMC формата : Без точки перехода
    Параметр матрицы формата : Default (H.263)
    Идентификатор кодека : XVID
    Идентификатор кодека/Подсказка : XviD
    Продолжительность : 1 ч. Самое интересное в это истории, что об этом Папа Римский ничего не знал. 4 м.
    Битрейт : 1479 Кбит/сек
    Ширина : 720 пикселей
    Высота : 400 пикселей
    Соотношение сторон : 16: 9
    Частота кадров : 23, 976 кадра/сек
    Цветовое пространство : YUV
    Субдискретизация насыщенности : 4: 2: 0
    Битовая глубина : 8 бит
    Тип развёртки : Прогрессивная
    Метод сжатия : С потерями
    Бит/(Пиксели*Кадры) : 0.214
    Размер потока : 687 Мбайт (88%)
    Библиотека кодирования : XviD 1.2.1 (UTC 2008-12-04)
    Аудио
    Идентификатор : 1
    Формат : MPEG Audio
    Версия формата : Version 1
    Профиль формата : Layer 3
    Режим : Joint stereo
    Расширение режима : MS Stereo
    Идентификатор кодека : 55
    Идентификатор кодека/Подсказка : MP3
    Продолжительность : 1 ч. 4 м.
    Вид битрейта : Переменный
    Битрейт : 192 Кбит/сек
    Каналы : 2 канала
    Частота : 48, 0 КГц
    Метод сжатия : С потерями
    Размер потока : 87, 2 Мбайт (11%)
    Выравнивание : Соединение по промежуткам
    Продолжительность промежутка : 24 мс. (0, 58 видеокадр)
    Время предзагрузки промежутка : 494 мс.
    Библиотека кодирования : LAME3.97b
    Настройки программы : -m j -V 4 -q 3 -lowpass 18.6 --abr 192


    Скриншоты для ознакомления




    Онлайн видео Агент



    Агент/Поворот/Turn (2014) WEB-DLRip (сезон 1, серии 1-10 из 10) Lostfilm
    загрузка...
    Рейтинг →
     (голосов: 1, оценка 5/5, голосовать можно 1 раз )

    Другие торренты по теме:

  • PROMT Агент 1.0.5 [En / Ru]
  • Mail.Ru Агент 6.4 Build 8614 Portable by punsh [Multi / Ru] скачать через торрент бесплатно
  • Джеймс Бонд - Агент 007: Коллекция «50 лет Бондиане» | James Bond 007: «Celebrating Five Decades Of Bond» (1962 - 2012) BDRip [720p] ATV скачать через торрент бесплатно
  • Агент 47 / Hitman: Agent 47 (2015) WEBRip [1080p] [Трейлер] скачать через торрент бесплатно
  • Агент / Поворот / Turn (2015) WEB-DLRip (сезон 2, серии 1 из 10) Lostfilm (обновляемая) скачать через торрент бесплатно
  • Агент / Поворот / Turn (2015) WEB-DLRip (сезон 2, серии 1-2 из 10) BaibaKo (обновляемая) скачать через торрент бесплатно
  • Агент Картер / Agent Carter (2015) WEB-DL [H.264 / 720p-LQ] (Сезон 1, серии 1-8 из 8) (Невафильм) скачать через торрент бесплатно
  • Агент 47 / Hitman: Agent 47 (2015) WEBRip [H.264 / 1080p] [Трейлер#2] скачать через торрент бесплатно


    • Комментарии (0):

      Информация

      Информация

        Посетители, находящиеся в группе Гости, не могут оставлять комментарии в данной новости.

        ↓ Меню




        ↓ Опрос

        Вы добавили сайт в закладки?
        Да
        Нет


        Top 10 за месяц (Фильмы)