.
Авторизация | Регистрация
Хочешь лучшие торренты? Добавь свой email!
Добавить

Торрент скачать бесплатно

» » Дух мщения / The Wraith (1986) BDRip [H.264] скачать через торрент бесплатно




    Дух мщения / The Wraith (1986) BDRip [H.264] скачать через торрент бесплатно

    Опубликовал: Админ | Дата: 27-03-2015, 04:00 | Просмотров: 121

    Производство: США, Канада/Alliance Entertainment, New Century Entertainment Corporation, Turbo Productions
    Жанр: Ужасы, Фантастика, Боевик, Триллер, Мелодрама
    Режиссер: Майк Марвин
    Сценарий: Майк Марвин
    Продюсер: Джон Кемень, Бак Хотон, Джеффри Судзин

    Актеры
    Чарли Шин, Ник Кассаветис, Шерилин Фенн, Рэнди Куэйд, Мэттью Бэрри, Дэвид Шерилл, Джэми Бозиан, Клинт Ховард, Гриффин О’Нил, Крис Нэш

    Описание фильма

    Банда подростков останавливают водителей и заставляют их участвовать в гонках, ставка в которых — машина, принадлежащая несчастным, попавшимся им на пути. Молодой парень, погибший от рук этих бандитов, возвращается с того света в виде призрака на черном гоночном автомобиле и начинает мстить за свою смерть, вызывая подонков на дуэль и убивая их одного за одним…

    Продолжительность: 01: 33: 11
    Качество видео: BDRip
    Перевод: Многоголосый, двуголосый закадровый, авторский
    Субтитры: Отсутствуют
    Видео: MPEG-4 AVC/H.264, 2575 Кбит/сек, 1024x576
    Аудио 1: Русский, AC3 2.0, 192 Кбит/сек, 48 kHz (Многоголосый закадровый, студия Велес)
    Аудио 2: Русский, AC3 2.0, 192 Кбит/сек, 48 kHz (Многоголосый закадровый, СВ-КАДР)
    Аудио 3: Русский, AC3 2.0, 192 Кбит/сек, 48 kHz (Двуголосый закадровый, ТВ-3)
    Аудио 4: Русский, AC3 2.0, 192 Кбит/сек, 48 kHz (Авторский, Ю.Немахов)
    Аудио 5: Английский, AC3 2.0, 192 Кбит/сек, 48 kHz (Оригинал)
    Сэмпл: Скачать
    General
    Unique ID : 244966083612967825725205450935210519176 (0xB84AC0677A5AEBBDA565432182D2AA88)
    Complete name : F: DownloadsДух мщения.mkv
    Format : Matroska
    Format version : Version 4/Version 2
    File size : 2.30 GiB
    Duration : 1h 33mn
    Overall bit rate : 3 533 Kbps
    Encoded date : UTC 2015-03-19 22: 11: 59
    Writing application : mkvmerge v7.0.0 (\'Where We Going\') 32bit built on Jun 9 2014 15: 08: 34
    Writing library : libebml v1.3.0 + libmatroska v1.4.1
    DURATION : 01: 33: 11.232000000
    NUMBER_OF_FRAMES : 174726
    NUMBER_OF_BYTES : 134189568
    _STATISTICS_WRITING_APP : mkvmerge v7.0.0 (\'Where We Going\') 32bit built on Jun 9 2014 15: 08: 34
    _STATISTICS_WRITING_DATE_UTC : 2015-03-19 22: 11: 59
    _STATISTICS_TAGS : BPS DURATION NUMBER_OF_FRAMES NUMBER_OF_BYTES
    Video
    ID : 1
    Format : AVC
    Format/Info : Advanced Video Codec
    Format profile : High@L4.1
    Format settings, CABAC : Yes
    Format settings, ReFrames : 8 frames
    Codec ID : V_MPEG4/ISO/AVC
    Duration : 1h 33mn
    Bit rate : 2 575 Kbps
    Width : 1 024 pixels
    Height : 576 pixels
    Display aspect ratio : 16: 9
    Frame rate mode : Constant
    Frame rate : 23.976 fps
    Color space : YUV
    Chroma subsampling : 4: 2: 0
    Bit depth : 8 bits
    Scan type : Progressive
    Bits/(Pixel*Frame) : 0.182
    Stream size : 1.63 GiB (71%)
    Title : The Wraith
    Writing library : x264 core 125 r2208 d9d2288
    Encoding settings : cabac=1/ref=8/deblock=1: -1: -1/analyse=0x3: 0x133/me=umh/subme=9/psy=1/psy_rd=1.00: 0.10/mixed_ref=1/me_range=32/chroma_me=1/trellis=2/8x8dct=1/cqm=0/deadzone=21, 11/fast_pskip=0/chroma_qp_offset=-3/threads=6/lookahead_threads=1/sliced_threads=0/nr=0/decimate=1/interlaced=0/bluray_compat=0/constrained_intra=0/bframes=3/b_pyramid=2/b_adapt=2/b_bias=0/direct=3/weightb=1/open_gop=0/weightp=2/keyint=250/keyint_min=25/scenecut=40/intra_refresh=0/rc_lookahead=60/rc=2pass/mbtree=1/bitrate=2575/ratetol=1.0/qcomp=0.60/qpmin=0/qpmax=69/qpstep=4/cplxblur=20.0/qblur=0.5/ip_ratio=1.40/aq=1: 1.00
    Language : English
    Default : Yes
    Forced : No
    Audio #1
    ID : 2
    Format : AC-3
    Format/Info : Audio Coding 3
    Mode extension : CM (complete main)
    Format settings, Endianness : Big
    Codec ID : A_AC3
    Duration : 1h 33mn
    Bit rate mode : Constant
    Bit rate : 192 Kbps
    Channel(s) : 2 channels
    Channel positions : Front: L R
    Sampling rate : 48.0 KHz
    Bit depth : 16 bits
    Compression mode : Lossy
    Stream size : 128 MiB (5%)
    Title : Многоголосый закадровый, студия Велес
    Language : Russian
    Default : Yes
    Forced : No
    Audio #2
    ID : 3
    Format : AC-3
    Format/Info : Audio Coding 3
    Mode extension : CM (complete main)
    Format settings, Endianness : Big
    Codec ID : A_AC3
    Duration : 1h 33mn
    Bit rate mode : Constant
    Bit rate : 192 Kbps
    Channel(s) : 2 channels
    Channel positions : Front: L R
    Sampling rate : 48.0 KHz
    Bit depth : 16 bits
    Compression mode : Lossy
    Stream size : 128 MiB (5%)
    Title : Многоголосый закадровый, СВ-КАДР
    Language : Russian
    Default : No
    Forced : No
    Audio #3
    ID : 4
    Format : AC-3
    Format/Info : Audio Coding 3
    Mode extension : CM (complete main)
    Format settings, Endianness : Big
    Codec ID : A_AC3
    Duration : 1h 33mn
    Bit rate mode : Constant
    Bit rate : 192 Kbps
    Channel(s) : 2 channels
    Channel positions : Front: L R
    Sampling rate : 48.0 KHz
    Bit depth : 16 bits
    Compression mode : Lossy
    Stream size : 128 MiB (5%)
    Title : Двуголосый закадровый, ТВ-3
    Language : Russian
    Default : No
    Forced : No
    Audio #4
    ID : 5
    Format : AC-3
    Format/Info : Audio Coding 3
    Mode extension : CM (complete main)
    Format settings, Endianness : Big
    Codec ID : A_AC3
    Duration : 1h 33mn
    Bit rate mode : Constant
    Bit rate : 192 Kbps
    Channel(s) : 2 channels
    Channel positions : Front: L R
    Sampling rate : 48.0 KHz
    Bit depth : 16 bits
    Compression mode : Lossy
    Stream size : 128 MiB (5%)
    Title : Авторский, Ю.Немахов
    Language : Russian
    Default : No
    Forced : No
    Audio #5
    ID : 6
    Format : AC-3
    Format/Info : Audio Coding 3
    Mode extension : CM (complete main)
    Format settings, Endianness : Big
    Codec ID : A_AC3
    Duration : 1h 33mn
    Bit rate mode : Constant
    Bit rate : 192 Kbps
    Channel(s) : 2 channels
    Channel positions : Front: L R
    Sampling rate : 48.0 KHz
    Bit depth : 16 bits
    Compression mode : Lossy
    Stream size : 128 MiB (5%)
    Title : Оригинал
    Language : English
    Default : No
    Forced : No

    Скриншоты для ознакомления



    Скриншоты для ознакомления




    Онлайн видео Дух мщения



    Дух мщения/The Wraith (1986) BDRip [H.264]
    загрузка...
    Рейтинг →
     (голосов: 1, оценка 5/5, голосовать можно 1 раз )

    Другие торренты по теме:

  • Дух мщения / The Wraith (1986) BDRip [720p]
  • Дух мщения / Перехватчик / The Wraith (1986) BDRip [H.264 / 1080p-LQ]


    • Комментарии (0):

      Информация

      Информация

        Посетители, находящиеся в группе Гости, не могут оставлять комментарии в данной новости.

        ↓ Меню




        ↓ Опрос

        Вы добавили сайт в закладки?
        Да
        Нет


        Top 10 за месяц (Фильмы)