.
Авторизация | Регистрация
Хочешь лучшие торренты? Добавь свой email!
Добавить

Торрент скачать бесплатно

» » Дикая / Wild (2014) BDRip [720p] скачать через торрент бесплатно




    Дикая / Wild (2014) BDRip [720p] скачать через торрент бесплатно

    Опубликовал: Админ | Дата: 26-03-2015, 04:00 | Просмотров: 116

    Производство: США/Fox Searchlight Pictures, Pacific Standard
    Жанр: драма, биография
    Режиссер: Жан-Марк Валле
    Продюсеры: Бруна Папандреа, Уильям Полад, Риз Уизерспун

    Актеры
    Риз Уизерспун, Лора Дерн, Томас Садоски, Кин МакРей, Михил Хаушман,
    У. Эрл Браун, Габи Хоффманн, Кевин О. Ранкин, Брайан Ван Холт, Клифф Де Янг

    Описание фильма

    В центре сюжета Шерил Стрэйд, раздавленная неудавшимся браком и смертью матери и потерявшая всякую надежду на счастье женщина, отправляется в пешее странствие по территории Pacific Crest Trail — маршруту по наиболее высоким участкам хребта Сьерра-Невада и Каскадных гор. Испытания, выпавшие в этом опасном одиночном путешествии на долю героини, неминуемо исцеляют ее от душевных страданий, но процесс этот будет отнюдь не безболезненным.

    Дата мировой премьеры: 29 августа 2014
    Дата российской премьеры: 9 апреля 2015, Двадцатый Век Фокс СНГ
    Дата выхода DVD/Blu-ray релиза: 21 мая 2015, Двадцатый Век Фокс СНГ
    Продолжительность: 01: 55: 37
    Качество видео: BDRip
    Перевод: двуголосый закадровый, любительский (Savetig Studios);
    одноголосый закадровый, любительский (Lord32x)
    Субтитры: вшитые отключаемые
    Язык субтитров: русские, английские
    Видео: MPEG-4 AVC/H.264 | 5803 Кбит/с | 1280x536
    Аудио 1: AC3 2.0 | 192 Кбит/с | двуголосый закадровый, любительский
    Аудио 2: AC3 5.1 | 384 Кбит/с | одноголосый закадровый, любительский
    Аудио 3: DTS 5.1 |1509 Кбит/с | английский
    Код:

    Общее
    Уникальный идентификатор : 230671638504399068719193335807270388906 (0xAD89BDD8F34762E1B0577CAEE61304AA)
    Полное имя : D:NNM-ClubДикая BDRip [720p].mkv
    Формат : Matroska
    Версия формата : Version 4/Version 2
    Размер файла : 6, 50 Гбайт
    Продолжительность : 1 ч. 55 м.
    Общий поток : 8048 Кбит/сек
    Название фильма : Дикая BDRip [720p]
    Дата кодирования : UTC 2015-03-24 16:43:56
    Программа кодирования : mkvmerge v7.7.0 (\'Six Voices\') 32bit built on Feb 28 2015 23:23:00
    Библиотека кодирования : libebml v1.3.1 + libmatroska v1.4.2
    _STATISTICS_WRITING_APP : mkvmerge v7.7.0 (\'Six Voices\') 32bit built on Feb 28 2015 23:23:00
    _STATISTICS_WRITING_DATE_UTC : 2015-03-24 16:43:56
    _STATISTICS_TAGS : BPS DURATION NUMBER_OF_FRAMES NUMBER_OF_BYTES
    DURATION : 01:55:36.896000000
    NUMBER_OF_FRAMES : 216778
    NUMBER_OF_BYTES : 332971008
    Видео
    Идентификатор : 1
    Формат : AVC
    Формат/Информация : Advanced Video Codec
    Профиль формата :High@L4.1
    Параметр CABAC формата : Да
    Параметр ReFrames формата : 12 кадров
    Идентификатор кодека : V_MPEG4/ISO/AVC
    Продолжительность : 1 ч. 55 м.
    Битрейт : 5803 Кбит/сек
    Ширина : 1280 пикселей
    Высота : 536 пикселей
    Соотношение сторон : 2, 40:1
    Режим частоты кадров : Постоянный
    Частота кадров : 23, 976 кадра/сек
    Цветовое пространство : YUV
    Субдискретизация насыщенности : 4:2:0
    Битовая глубина : 8 бит
    Тип развёртки : Прогрессивная
    Бит/(Пиксели*Кадры) : 0.353
    Размер потока : 4, 69 Гбайт (72%)
    Заголовок : Дикая BDRip [720p]
    Библиотека кодирования : x264 core 142 r2431+42 c69a006 tMod [8-bit@all X86_64]
    Настройки программы : cabac=1/ref=12/deblock=1:-3:-3/analyse=0x3:0x133/me=umh/subme=11/psy=1/fade_compensate=0.00/psy_rd=1.05:0.00/mixed_ref=1/me_range=24/chroma_me=1/trellis=2/8x8dct=1/cqm=0/deadzone=21, 11/fast_pskip=0/chroma_qp_offset=-2/threads=24/lookahead_threads=4/sliced_threads=0/nr=0/decimate=0/interlaced=0/bluray_compat=0/constrained_intra=0/fgo=0/bframes=8/b_pyramid=2/b_adapt=2/b_bias=0/direct=3/weightb=1/open_gop=0/weightp=2/keyint=250/keyint_min=23/scenecut=40/intra_refresh=0/rc=crf/mbtree=0/crf=16.0000/qcomp=0.70/qpmin=0:0:0/qpmax=69:69:69/qpstep=4/ip_ratio=1.30/pb_ratio=1.20/aq=4:0.65/aq-sensitivity=10.00/aq-factor=1.00:1.00:1.00/aq2=0/aq3=0
    Язык : English
    Default : Да
    Forced : Нет
    _STATISTICS_WRITING_APP : mkvmerge v7.7.0 (\'Six Voices\') 32bit built on Feb 28 2015 23:23:00
    _STATISTICS_WRITING_DATE_UTC : 2015-03-24 16:43:56
    _STATISTICS_TAGS : BPS DURATION NUMBER_OF_FRAMES NUMBER_OF_BYTES
    DURATION : 01:55:36.930000000
    NUMBER_OF_FRAMES : 166320
    NUMBER_OF_BYTES : 5167561259
    Аудио #1
    Идентификатор : 2
    Формат : AC-3
    Формат/Информация : Audio Coding 3
    Расширение режима : CM (complete main)
    Параметр Endianness формата : Big
    Идентификатор кодека : A_AC3
    Продолжительность : 1 ч. 55 м.
    Вид битрейта : Постоянный
    Битрейт : 192 Кбит/сек
    Каналы : 2 канала
    Расположение каналов : Front: L R
    Частота : 48, 0 КГц
    Битовая глубина : 16 бит
    Метод сжатия : С потерями
    Размер потока : 159 Мбайт (2%)
    Заголовок : Savetig Studios
    Язык : Russian
    Default : Да
    Forced : Нет
    Аудио #2
    Идентификатор : 3
    Формат : AC-3
    Формат/Информация : Audio Coding 3
    Расширение режима : CM (complete main)
    Параметр Endianness формата : Big
    Идентификатор кодека : A_AC3
    Продолжительность : 1 ч. Самое интересное в это истории, что об этом Путин ничего не знал. 55 м.
    Вид битрейта : Постоянный
    Битрейт : 384 Кбит/сек
    Каналы : 6 каналов
    Расположение каналов : Front: L C R, Side: L R, LFE
    Частота : 48, 0 КГц
    Битовая глубина : 16 бит
    Метод сжатия : С потерями
    Размер потока : 318 Мбайт (5%)
    Заголовок : Lord32x
    Язык : Russian
    Default : Нет
    Forced : Нет
    Аудио #3
    Идентификатор : 4
    Формат : DTS
    Формат/Информация : Digital Theater Systems
    Режим : 16
    Параметр Endianness формата : Big
    Идентификатор кодека : A_DTS
    Продолжительность : 1 ч. 55 м.
    Вид битрейта : Постоянный
    Битрейт : 1509 Кбит/сек
    Каналы : 6 каналов
    Расположение каналов : Front: L C R, Side: L R, LFE
    Частота : 48, 0 КГц
    Битовая глубина : 24 бит
    Метод сжатия : С потерями
    Размер потока : 1, 22 Гбайт (19%)
    Заголовок : English
    Язык : English
    Default : Нет
    Forced : Нет
    Текст #1
    Идентификатор : 5
    Формат : UTF-8
    Идентификатор кодека : S_TEXT/UTF8
    Идентификатор кодека/Информация : UTF-8 Plain Text
    Язык : Russian
    Default : Нет
    Forced : Нет
    Текст #2
    Идентификатор : 6
    Формат : UTF-8
    Идентификатор кодека : S_TEXT/UTF8
    Идентификатор кодека/Информация : UTF-8 Plain Text
    Язык : English
    Default : Нет
    Forced : Нет
    Текст #3
    Идентификатор : 7
    Формат : UTF-8
    Идентификатор кодека : S_TEXT/UTF8
    Идентификатор кодека/Информация : UTF-8 Plain Text
    Заголовок : SDH
    Язык : English
    Default : Нет
    Forced : Нет
    Меню
    00:00:00.000 : en:00:00:00.000
    00:02:57.177 : en:00:02:57.177
    00:05:48.306 : en:00:05:48.306
    00:09:36.910 : en:00:09:36.910
    00:12:02.013 : en:00:12:02.013
    00:14:56.729 : en:00:14:56.729
    00:19:38.344 : en:00:19:38.344
    00:22:42.319 : en:00:22:42.319
    00:26:09.443 : en:00:26:09.443
    00:31:03.987 : en:00:31:03.987
    00:33:42.646 : en:00:33:42.646
    00:35:58.990 : en:00:35:58.990
    00:40:35.600 : en:00:40:35.600
    00:44:04.976 : en:00:44:04.976
    00:47:38.814 : en:00:47:38.814
    00:51:52.026 : en:00:51:52.026
    00:54:43.071 : en:00:54:43.071
    00:58:57.617 : en:00:58:57.617
    01:02:13.438 : en:01:02:13.438
    01:04:54.182 : en:01:04:54.182
    01:07:52.402 : en:01:07:52.402
    01:11:53.184 : en:01:11:53.184
    01:15:15.136 : en:01:15:15.136
    01:18:05.723 : en:01:18:05.723
    01:20:57.936 : en:01:20:57.936
    01:23:13.280 : en:01:23:13.280
    01:26:39.611 : en:01:26:39.611
    01:29:24.401 : en:01:29:24.401
    01:32:09.149 : en:01:32:09.149
    01:34:41.175 : en:01:34:41.175
    01:36:37.458 : en:01:36:37.458
    01:38:04.587 : en:01:38:04.587
    01:41:03.182 : en:01:41:03.182
    01:43:11.102 : en:01:43:11.102
    01:47:12.343 : en:01:47:12.343
    01:50:33.001 : en:01:50:33.001


    Скриншоты для ознакомления




    Онлайн видео Дикая



    Дикая/Wild (2014) BDRip [720p]
    загрузка...
    Рейтинг →
     (голосов: 1, оценка 3/5, голосовать можно 1 раз )

    Другие торренты по теме:

  • Дикая природа Индокитая: Дикая Камбоджа / Wild Cambodia (2015) HDTVRip [H.264 / 720p]
  • Ведьмак 3: Дикая охота / The Witcher 3: Wild Hunt (2014) WEBRip [En]
  • National Geographic: Дикая Намибия / Wild Namibia (2013) HDTVRip
  • National Geographic. Дикая Ботсвана: Братство львов / Wild Botswana: Lion Brotherhood (2014) HDTVRip
  • Дикая Южная Африка: Большая пятерка / Wildlife South Africa: Big Fivec (2012) DVDRip скачать через торрент бесплатно
  • Дикая природа Таиланда / Wild Thailand (2013) HDTVRip [H.264 / 720p] (1-2 серии из 2) скачать через торрент бесплатно
  • Дикая природа Германии / Wildes Deutschland (2011) BDRip [H.264 / 1080p] (Сезон 1, 1-6 серия из 6)
  • Дикая природа Германии / Wildes Deutschland (2012) BDRip [H.264 / 1080p] (Сезон 2, 1-5 серия из 5) скачать через торрент бесплатно


    • Комментарии (0):

      Информация

      Информация

        Посетители, находящиеся в группе Гости, не могут оставлять комментарии в данной новости.

        ↓ Меню




        ↓ Опрос

        Вы добавили сайт в закладки?
        Да
        Нет


        Top 10 за месяц (Фильмы)