.
Авторизация | Регистрация
Хочешь лучшие торренты? Добавь свой email!
Добавить

Торрент скачать бесплатно

» » Менталист / The Mentalist (2013) WEB-DL [H.264 / 720p-LQ] (Сезон 6, серии 1-4 из 22) (ТВ-3) (обновляемая) скачать через торрент бесплатно




    Менталист / The Mentalist (2013) WEB-DL [H.264 / 720p-LQ] (Сезон 6, серии 1-4 из 22) (ТВ-3) (обновляемая) скачать через торрент бесплатно

    Опубликовал: Админ | Дата: 24-03-2015, 04:00 | Просмотров: 151

    Производство: США
    Жанр: Драма, криминал
    Перевод: Дублированный -студия Zone Vision по заказу ТВ-3
    Вид субтитров: Вшитые отключаемые
    Язык субтитров: Английский
    Режиссер: Рэндалл Зиск, Крис Лонг, Саймон Бейкер, Роберт Данкан МакНил

    Актеры
    Саймон Бейкер, Робин Танни, Аманда Риджетти, Тим Кенг, Овайн Йомен, Эммануэль Шрики и др.

    Описание

    Патрик Джейн — детектив и независимый консультант из Калифорнийского Бюро Расследований (CBI), он использует свои отточенные, как лезвие, навыки наблюдения для раскрытия тяжких преступлений. В самом Бюро Джейн известен за частые нарушения протокола, а также за его звездное прошлое: он работал медиумом, однако теперь сам признает, что симулировал паранормальные способности. Роль Джейна в раскрытии целой серии загадочных преступлений высоко ценится коллегами. Но суровая старший агент Тереза Лисбон против того, чтоб Джейн работал с ее отрядом, и то вынужденно признает его успехи, то критикует его за театральность, нарциссизм и отсутствие границ.
    СЭМПЛ
    Продолжительность: ~00: 42: 00 серия
    Качество видео: WEB-DL 720p
    Формат: MKV
    Видео: 1280x720 (16: 9), 25 fps, MPEG-4 AVC/H.264 ~4194 Kbps, ~0.182 bit/pixel
    Аудио Rus: AC3, 192 kbps, 2 ch, 48 kHz
    Аудио Eng: AC3, 384 kbps, 6 ch, 48 kHz
    Роли дублировали: Сергей Набиев, Вероника Саркисова, Александр Коврижных, Никита Прозоровский, Ольга Зверева, Людмила Шувалова, Андрей Бархударов
    Общее
    The Mentalist - Менталист. Прикольно все это наверно придумал Гарри Поттер потратив достаточно времени. Сезон 6. ТВ-3. 720pThe.Mentalist.s06e01.WEB-DL.720p.Rus.Eng.mkv
    Формат : Matroska
    Версия формата : Version 4/Version 2
    Размер файла : 1, 36 Гбайт
    Продолжительность : 40 м.
    Общий поток : 4867 Кбит/сек
    Дата кодирования : UTC 2015-03-23 07: 44: 42
    Программа кодирования : mkvmerge v6.9.1 (\'Blue Panther\') 64bit built on Apr 18 2014 18: 23: 38
    Библиотека кодирования : libebml v1.3.0 + libmatroska v1.4.1
    Видео
    Идентификатор : 1
    Формат : AVC
    Формат/Информация : Advanced Video Codec
    Профиль формата : High@L3.1
    Параметр CABAC формата : Нет
    Параметр ReFrames формата : 2 кадра
    Идентификатор кодека : V_MPEG4/ISO/AVC
    Продолжительность : 40 м.
    Битрейт : 4194 Кбит/сек
    Ширина : 1280 пикселей
    Высота : 720 пикселей
    Соотношение сторон : 16: 9
    Режим частоты кадров : Постоянный
    Частота кадров : 25, 000 кадров/сек
    Цветовое пространство : YUV
    Субдискретизация насыщенности : 4: 2: 0
    Битовая глубина : 8 бит
    Тип развёртки : Прогрессивная
    Бит/(Пиксели*Кадры) : 0.182
    Размер потока : 1, 17 Гбайт (86%)
    Язык : English
    Default : Да
    Forced : Нет
    Основные цвета : BT.709
    Характеристики трансфера : BT.709
    Коэффициенты матрицы : BT.709
    colour_range : Limited
    Аудио #1
    Идентификатор : 2
    Формат : AC-3
    Формат/Информация : Audio Coding 3
    Расширение режима : CM (complete main)
    Параметр Endianness формата : Big
    Идентификатор кодека : A_AC3
    Продолжительность : 40 м.
    Вид битрейта : Постоянный
    Битрейт : 192 Кбит/сек
    Каналы : 2 канала
    Расположение каналов : Front: L R
    Частота : 48, 0 КГц
    Битовая глубина : 16 бит
    Метод сжатия : С потерями
    Размер потока : 55, 0 Мбайт (4%)
    Язык : Russian
    Default : Да
    Forced : Нет
    Аудио #2
    Идентификатор : 3
    Формат : AC-3
    Формат/Информация : Audio Coding 3
    Расширение режима : CM (complete main)
    Параметр Endianness формата : Big
    Идентификатор кодека : A_AC3
    Продолжительность : 40 м.
    Вид битрейта : Постоянный
    Битрейт : 384 Кбит/сек
    Каналы : 6 каналов
    Расположение каналов : Front: L C R, Side: L R, LFE
    Частота : 48, 0 КГц
    Битовая глубина : 16 бит
    Метод сжатия : С потерями
    Размер потока : 110 Мбайт (8%)
    Язык : English
    Default : Нет
    Forced : Нет
    Текст
    Идентификатор : 4
    Формат : UTF-8
    Идентификатор кодека : S_TEXT/UTF8
    Идентификатор кодека/Информация : UTF-8 Plain Text
    Язык : English
    Default : Нет
    Forced : Нет


    Скриншоты для ознакомления




    Онлайн видео Менталист



    Менталист/The Mentalist (2013) WEB-DL [H.264/720p-LQ] (Сезон 6, серии 1-4 из 22) (ТВ-3) (обновляемая)
    загрузка...
    Рейтинг →
     (голосов: 1, оценка 5/5, голосовать можно 1 раз )

    Другие торренты по теме:

  • Менталист / The Mentalist (2014) HDTVRip [H.264] (сезон 7, серии 1 из 13) BaibaKo (обновляемая) скачать через торрент бесплатно
  • Менталист / The Mentalist (2014) HDTVRip (Сезон 7, серия 1 из 13) (BaibaKo) (обновляемая) скачать через торрент бесплатно
  • Менталист / The Mentalist (2014) HDTV [H.264 / 720p-LQ] (Сезон 7, серия 1 из 13) (BaibaKo) (обновляемая) скачать через торрент бесплатно
  • Менталист / The Mentalist (2014) WEB-DL [H.264 / 1080p-LQ] (сезон 7, серии 1 из 13) BaibaKo (обновляемая) скачать через торрент бесплатно
  • Менталист / The Mentalist (2013-2014) WEB-DLRip (сезон 6, серии 1-4 из 22) ТВ-3 (обновляемая) скачать через торрент бесплатно
  • Менталист / The Mentalist (2014) WEB-DL [H.264 / 720p-LQ] (Сезон 7, серии 1-4 из 13) (ТВ-3) (обновляемая) скачать через торрент бесплатно
  • Менталист / The Mentalist (2014) WEB-DLRip (сезон 7, серии 1-4 из 13) ТВ-3 (обновляемая) скачать через торрент бесплатно
  • Blake Neely - Менталист / The Mentalist, Seasons 1-2 (2010) [AAC|WEB-DL|256 кб / с]<Score> скачать через торрент бесплатно


    • Комментарии (0):

      Информация

      Информация

        Посетители, находящиеся в группе Гости, не могут оставлять комментарии в данной новости.

        ↓ Меню




        ↓ Опрос

        Вы добавили сайт в закладки?
        Да
        Нет


        Top 10 за месяц (Фильмы)