.
Авторизация | Регистрация
Хочешь лучшие торренты? Добавь свой email!
Добавить

Торрент скачать бесплатно

» » Между двух огней (2015) SATRip (серии 1-2 из 16) (обновляемая) скачать через торрент бесплатно




    Между двух огней (2015) SATRip (серии 1-2 из 16) (обновляемая) скачать через торрент бесплатно

    Опубликовал: Админ | Дата: 24-03-2015, 04:00 | Просмотров: 132

    Производство: Россия/ТВЦ АМЕДИА продакшн
    Жанр: детектив
    Режиссер: Дмитрий Булин

    Актеры
    Александр Никитин (IV), Иван Шмаков, Мария Ильина, Елена Великанова, Юлия Зимина, Ольга Волкова, Александр Пашков, Павел Филиппов, Маргарита Силкина, Сергей Жарков, Дария Тюрина, Юлия Полынская, Максим Пинскер, Анастасия Захарова, Артём Алексеев (II), Анатолий Завьялов, Вероника Рис и др.

    Описание фильма

    Рискуя своей жизнью, они каждый день идут в огонь, тушат горящие дома и спасают гибнущих в пожарах людей. Для них это вовсе не подвиг, а привычный труд. Они – бойцы пожарной охраны. Но, пока не заревел сигнал пожарной тревоги, они – такие же люди, как мы с вами. Со своими проблемами и тревогами, любовными переживаниями и семейными конфликтами. Главный герой этой истории, командир отделения пожарной части, Алексей, оказывается меж двух огней: он вот-вот сделает предложение своей любимой женщине, Дарье, с которой у них уже почти сложилась хорошая крепкая семья, как вдруг к нему бесцеремонно заявляется его бывшая жена Софья.
    Дата российской премьеры: 23 марта 2015
    Качество видео: SATRip
    Продолжительность: ~00: 45: 00 серия
    Видеокодек: XviD
    Битрейт видео: ~1800 kbps
    Размер кадра: 720x400 25.00fps
    Аудиокодек: AC3, 2 ch
    Битрейт аудио: 192 kbps
    Код:
    Общее
    Полное имя : D:МЕЖДУ ДВУХ ОГНЕЙ SatRipMezhdu.Dvuh.Ogney.01.SATRip..avi
    Формат : AVI
    Формат/Информация : Audio Video Interleave
    Размер файла : 650 Мбайт
    Продолжительность : 45 м.
    Общий поток : 2001 Кбит/сек
    Программа кодирования : VirtualDubMod 1.5.10.3 |www.virtualdub-fr.org|| (build 2550/release)
    Библиотека кодирования : VirtualDubMod build 2550/release
    Видео
    Идентификатор : 0
    Формат : MPEG-4 Visual
    Профиль формата : Advanced Simple@L5
    Параметр BVOP формата : 2
    Параметр QPel формата : Нет
    Параметр GMC формата : Без точки перехода
    Параметр матрицы формата : Default (H.263)
    Идентификатор кодека : XVID
    Идентификатор кодека/Подсказка : XviD
    Продолжительность : 45 м.
    Битрейт : 1800 Кбит/сек
    Ширина : 720 пикселей
    Высота : 400 пикселей
    Соотношение сторон : 16:9
    Частота кадров : 25, 000 кадров/сек
    Цветовое пространство : YUV
    Субдискретизация насыщенности : 4:2:0
    Битовая глубина : 8 бит
    Тип развёртки : Прогрессивная
    Метод сжатия : С потерями
    Бит/(Пиксели*Кадры) : 0.250
    Размер потока : 585 Мбайт (90%)
    Библиотека кодирования : XviD 1.2.1 (UTC 2008-12-04)
    Аудио
    Идентификатор : 1
    Формат : AC-3
    Формат/Информация : Audio Coding 3
    Расширение режима : CM (complete main)
    Параметр Endianness формата : Big
    Идентификатор кодека : 2000
    Продолжительность : 45 м.
    Вид битрейта : Постоянный
    Битрейт : 192 Кбит/сек
    Каналы : 2 канала
    Расположение каналов : Front: L R
    Частота : 48, 0 КГц
    Битовая глубина : 16 бит
    Метод сжатия : С потерями
    Размер потока : 62, 4 Мбайт (10%)
    Выравнивание : Разделение по промежуткам
    Продолжительность промежутка : 40 мс. (1, 00 видеокадр)
    Время предзагрузки промежутка : 500 мс.


    Скриншоты для ознакомления




    Онлайн видео Между двух огней (2015) SATRip (серии 1



    Между двух огней (2015) SATRip (серии 1-2 из 16) (обновляемая)
    загрузка...
    Рейтинг →
     (голосов: 1, оценка 4/5, голосовать можно 1 раз )

    Другие торренты по теме:

  • Дикая Азия: Между двух миров / Wild Asia: Between Two Worlds (1998) BDRip [H.264 / 720p]
  • Азамат Биштов - Между двух сердец (2013) [MP3|320 кб / с]<Pop> скачать через торрент бесплатно
  • Между двух огней / Profil bas (1993) DVDRip [H.264]


    • Комментарии (0):

      Информация

      Информация

        Посетители, находящиеся в группе Гости, не могут оставлять комментарии в данной новости.

        ↓ Меню




        ↓ Опрос

        Вы добавили сайт в закладки?
        Да
        Нет


        Top 10 за месяц (Фильмы)