.
Авторизация | Регистрация
Хочешь лучшие торренты? Добавь свой email!
Добавить

Торрент скачать бесплатно

» » Это любовь (2015) WEB-DLRip [H.264 / 720p-LQ] (серии 1-2 из 20) (обновляемая) скачать через торрент бесплатно




    Это любовь (2015) WEB-DLRip [H.264 / 720p-LQ] (серии 1-2 из 20) (обновляемая) скачать через торрент бесплатно

    Опубликовал: Админ | Дата: 24-03-2015, 04:00 | Просмотров: 108

    Производство: Yellow, Black and White, СТС, Россия
    Жанр: комедия
    Режиссер: Александр Богданенко

    Актеры
    Инна Приходько, Константин Войтенко, Ольга Голдыс, Тимур Еремеев, Зоряна Марченко, Александр Ведменский, Яна Глущенко, Наталья Гнитий, Назар Заднепровский

    Описание фильма

    Настя и Андрей совсем недавно решились на ответственный шаг — они съехались, налаживают совместный быт и начинают понимать, что для крепких отношений нужна не только любовь и романтика, но и терпение.. много терпения! Аня и Паша уже давно прошли этот этап — они успели обзавестись общей фамилией и маленьким ребенком, но только не собственным жильем. Счастье молодой семьи омрачает отец Ани, который так и не смог смириться с выбором дочери. С собственным выбором также не могут определиться друзья Оля и Дима, которые, проснувшись однажды в одной постели, не понимают, что их связывать — любовь или дружба?

    Дата российской премьеры: 23.03.2015
    Продолжительность: ~ 00: 24: 00 серия
    Качество видео: WEB-DLRip
    Видеокодек: AVC/H.264
    Битрейт видео: ~2500 Kbps
    Размер кадра: 1280x720 (16: 9)
    Аудиокодек: AC3
    Битрейт аудио: 2 ch, 256 Kbps
    Код:
    Общее
    Уникальный идентификатор : 210550763032190418944907085742829461216 (0x9E669A18542AA536AC055CFF5A2BDEE0)
    Полное имя : E:DOWNLOADSЭто любовь (2015) WEB-DLRip 720Это любовь - 01 серия.mkv
    Формат : Matroska
    Версия формата : Version 2
    Размер файла : 469 Мбайт
    Продолжительность : 23 м.
    Общий поток : 2779 Кбит/сек
    Дата кодирования : UTC 2015-03-23 17:22:20
    Программа кодирования : mkvmerge v6.1.0 (\'Old Devil\') built on Mar 4 2013 09:10:42
    Библиотека кодирования : libebml v1.3.0 + libmatroska v1.4.0
    Видео
    Идентификатор : 1
    Формат : AVC
    Формат/Информация : Advanced Video Codec
    Профиль формата :High@L3.1
    Параметр CABAC формата : Да
    Параметр ReFrames формата : 4 кадра
    Идентификатор кодека : V_MPEG4/ISO/AVC
    Продолжительность : 23 м.
    Битрейт : 2500 Кбит/сек
    Ширина : 1280 пикселей
    Высота : 720 пикселей
    Соотношение сторон : 16:9
    Режим частоты кадров : Постоянный
    Частота кадров : 25, 000 кадров/сек
    Цветовое пространство : YUV
    Субдискретизация насыщенности : 4:2:0
    Битовая глубина : 8 бит
    Тип развёртки : Прогрессивная
    Бит/(Пиксели*Кадры) : 0.109
    Размер потока : 416 Мбайт (89%)
    Библиотека кодирования : x264 core 140
    Настройки программы : cabac=1/ref=3/deblock=1:0:0/analyse=0x3:0x113/me=hex/subme=7/psy=1/psy_rd=1.00:0.00/mixed_ref=1/me_range=16/chroma_me=1/trellis=1/8x8dct=1/cqm=0/deadzone=21, 11/fast_pskip=1/chroma_qp_offset=-2/threads=24/lookahead_threads=4/sliced_threads=0/nr=0/decimate=1/interlaced=0/bluray_compat=0/constrained_intra=0/bframes=3/b_pyramid=2/b_adapt=1/b_bias=0/direct=1/weightb=1/open_gop=0/weightp=2/keyint=250/keyint_min=25/scenecut=40/intra_refresh=0/rc_lookahead=40/rc=abr/mbtree=1/bitrate=2500/ratetol=1.0/qcomp=0.60/qpmin=0/qpmax=69/qpstep=4/vbv_maxrate=5000/vbv_bufsize=10000/nal_hrd=none/filler=0/ip_ratio=1.40/aq=1:1.00
    Язык : English
    Default : Да
    Forced : Нет
    Аудио
    Идентификатор : 2
    Формат : AC-3
    Формат/Информация : Audio Coding 3
    Расширение режима : CM (complete main)
    Параметр Endianness формата : Big
    Идентификатор кодека : A_AC3
    Продолжительность : 23 м.
    Вид битрейта : Постоянный
    Битрейт : 256 Кбит/сек
    Каналы : 2 канала
    Расположение каналов : Front: L R
    Частота : 48, 0 КГц
    Битовая глубина : 16 бит
    Метод сжатия : С потерями
    Размер потока : 43, 2 Мбайт (9%)
    Default : Да
    Forced : Нет


    Скриншоты для ознакомления




    Онлайн видео Это любовь (2015) WEB-DLRip [H.264



    Это любовь (2015) WEB-DLRip [H.264/720p-LQ] (серии 1-2 из 20) (обновляемая)
    загрузка...
    Рейтинг →
     (голосов: 1, оценка 4/5, голосовать можно 1 раз )

    Другие торренты по теме:

  • А вдруг это любовь / Je crois que je laime (2007) DVDRip
  • Это любовь (2015) WEB-DLRip (серии 1-2 из 20) (обновляемая) скачать через торрент бесплатно
  • Это любовь (2016) SATRip (сезон 2, серии 1-4 из 20) (обновляемая)
  • Вот это любовь! (2013) WEB-DL [H.264 / 720p-LQ]
  • Валерий Леонтьев - Это любовь (2017) [MP3|320 Kbps] <Pop>
  • Нераскрытые тайны. Почему любовь - это болезнь (2014) SATRip скачать через торрент бесплатно
  • Ольга Кучкина | Это я, любовь! (1988) [PDF] скачать через торрент бесплатно
  • Шаблоны - Фотокнига - Любовь это... [PSD]


    • Комментарии (0):

      Информация

      Информация

        Посетители, находящиеся в группе Гости, не могут оставлять комментарии в данной новости.

        ↓ Меню




        ↓ Опрос

        Вы добавили сайт в закладки?
        Да
        Нет


        Top 10 за месяц (Фильмы)