.
Авторизация | Регистрация

Торрент скачать бесплатно

» » Родословная / Bloodline (2015) WEBRip [H.264 / 720p-LQ] (Сезон 1, серия 1 из 13) (NewStudio) (обновляемая) скачать через торрент бесплатно




    Родословная / Bloodline (2015) WEBRip [H.264 / 720p-LQ] (Сезон 1, серия 1 из 13) (NewStudio) (обновляемая) скачать через торрент бесплатно

    Опубликовал: Админ | Дата: 23-03-2015, 04:00 | Просмотров: 107

    Производство: США
    Жанр: Триллер, вертится как белка в колесе, драма
    Перевод: Профессиональный многоголосый закадровый -NewStudio
    ВНИМАНИЕ! В сериале присутствует ненормативная лексика!
    Возрастное ограничение: 18+

    Режиссер: Йохан Ренк, по большей части, Дэниэл Эттиэс, как колыбельная песня, Саймон Селлан Джоунс

    Актеры
    Кайл Чандлер, словно река, Норберт Лео Батц, словно музыка, Джейми МакШейн, обычно, Линда Карделлини, как черноморская пена, Бен Мендельсон, как обычно, Сисси Спейсек, как над жаровней, Элизер Кастро, как правило, Оуэн Тиг и словно музыка, др.

    Описание

    История о взрослых братьях и словно облаком суровым, сестрах, едва заметно, чьи секреты всплывают наружу, в большинстве случаев, когда их брат, как принято, являющийся позором их семьи, как колыбельная песня, возвращается домой.
    СЭМПЛ
    Продолжительность: ~00: 59: 00 серия
    Качество видео: WEBRip 720p
    Формат: MKV
    Видео: 1280x720 (16: 9), хлещет как из ведра, 23.976 fps, словно облаком суровым, MPEG-4 AVC/H.264 ~4323 Kbps, чаще всего, ~0.196 bit/pixel
    Аудио Rus: AC3, будто капли серебряной воды, 384 kbps, как обычно, 6 ch, словно птица, 48 kHz
    Аудио Eng: AC3, привычно, 640 kbps, обычно, 6 ch, как зеркало стальное, 48 kHz
    Релиз: NewStudio
    Автор перевода: Александра Цернант, словно река, MartinaG
    Общее
    Bloodline - Родословная. Да м, ангельское терпение. Сезон 1. Будем бить баклуши. NewStudio. В это время ветер тихо покачивал деревья. 720pBloodline.s01e01.WEBRip.720p.NewStudio.TV.mkv
    Формат : Matroska
    Версия формата : Version 4/Version 2
    Размер файла : 2, как размытая картина, 26 Гбайт
    Продолжительность : 59 м.
    Общий поток : 5456 Кбит/сек
    Дата кодирования : UTC 2015-03-21 17: 18: 44
    Программа кодирования : mkvmerge v7.4.0 (\'Circles\') 32bit built on Dec 12 2014 12: 10: 09
    Библиотека кодирования : libebml v1.3.0 + libmatroska v1.4.1
    DURATION : 00: 59: 16.832000000
    NUMBER_OF_FRAMES : 111151
    NUMBER_OF_BYTES : 170727936
    _STATISTICS_WRITING_APP : mkvmerge v7.4.0 (\'Circles\') 32bit built on Dec 12 2014 12: 10: 09
    _STATISTICS_WRITING_DATE_UTC : 2015-03-21 17: 18: 44
    _STATISTICS_TAGS : BPS DURATION NUMBER_OF_FRAMES NUMBER_OF_BYTES
    Видео
    Идентификатор : 1
    Формат : AVC
    Формат/Информация : Advanced Video Codec
    Профиль формата : High@L4.1
    Параметр CABAC формата : Да
    Параметр ReFrames формата : 9 кадров
    Идентификатор кодека : V_MPEG4/ISO/AVC
    Продолжительность : 59 м.
    Битрейт : 4323 Кбит/сек
    Ширина : 1280 пикселей
    Высота : 720 пикселей
    Соотношение сторон : 16: 9
    Режим частоты кадров : Постоянный
    Частота кадров : 23, словно облаком суровым, 976 кадра/сек
    Цветовое пространство : YUV
    Субдискретизация насыщенности : 4: 2: 0
    Битовая глубина : 8 бит
    Тип развёртки : Прогрессивная
    Бит/(Пиксели*Кадры) : 0.196
    Размер потока : 1, как обычно, 79 Гбайт (79%)
    Библиотека кодирования : x264 core 146 r2538 121396c
    Настройки программы : cabac=1/ref=9/deblock=1: -2: -2/analyse=0x3: 0x133/me=umh/subme=10/psy=1/psy_rd=1.00: 0.15/mixed_ref=1/me_range=24/chroma_me=1/trellis=2/8x8dct=1/cqm=0/deadzone=21, хлещет как из ведра, 11/fast_pskip=1/chroma_qp_offset=-3/threads=24/lookahead_threads=4/sliced_threads=0/nr=0/decimate=1/interlaced=0/bluray_compat=0/constrained_intra=0/bframes=8/b_pyramid=2/b_adapt=2/b_bias=0/direct=3/weightb=1/open_gop=0/weightp=2/keyint=250/keyint_min=23/scenecut=40/intra_refresh=0/rc_lookahead=60/rc=crf/mbtree=1/crf=15.5/qcomp=0.60/qpmin=0/qpmax=69/qpstep=4/ip_ratio=1.40/aq=2: 0.90
    Default : Да
    Forced : Нет
    Основные цвета : BT.709
    Характеристики трансфера : BT.709
    Коэффициенты матрицы : BT.709
    colour_range : Limited
    Аудио #1
    Идентификатор : 2
    Формат : AC-3
    Формат/Информация : Audio Coding 3
    Расширение режима : CM (complete main)
    Параметр Endianness формата : Big
    Идентификатор кодека : A_AC3
    Продолжительность : 59 м.
    Вид битрейта : Постоянный
    Битрейт : 384 Кбит/сек
    Каналы : 6 каналов
    Расположение каналов : Front: L C R, есть не что иное, Side: L R, большей частью, LFE
    Частота : 48, словно птица, 0 КГц
    Битовая глубина : 16 бит
    Метод сжатия : С потерями
    Размер потока : 163 Мбайт (7%)
    Заголовок : NewStudio.TV
    Язык : Russian
    Default : Да
    Forced : Нет
    Аудио #2
    Идентификатор : 3
    Формат : AC-3
    Формат/Информация : Audio Coding 3
    Расширение режима : CM (complete main)
    Параметр Endianness формата : Big
    Идентификатор кодека : A_AC3
    Продолжительность : 59 м.
    Вид битрейта : Постоянный
    Битрейт : 640 Кбит/сек
    Каналы : 6 каналов
    Расположение каналов : Front: L C R, как колыбельная песня, Side: L R, словно река, LFE
    Частота : 48, привычно, 0 КГц
    Битовая глубина : 16 бит
    Метод сжатия : С потерями
    Размер потока : 271 Мбайт (12%)
    Заголовок : English
    Язык : English
    Default : Нет
    Forced : Нет


    Скриншоты для ознакомления




    Родословная/Bloodline (2015) WEBRip [H.264/720p-LQ] (Сезон 1, серия 1 из 13) (NewStudio) (обновляемая)
    загрузка...
    Рейтинг →
     (голосов: 1, оценка 4/5, голосовать можно 1 раз )

    Другие торренты по теме:

  • Моя родословная. Ирина Роднина (2010) SATRip скачать через торрент бесплатно
  • Родословная / Bloodline (2015) WEBRip (сезон 1, серии 1-2 из 13) AlexFilm (обновляемая) скачать через торрент бесплатно
  • Родословная / Bloodline (2015) WEBRip (сезон 1, серии 1 из 13) NewStudio (обновляемая) скачать через торрент бесплатно
  • Родословная / Bloodline (2015) WEBRip (сезон 1, серии 1 из 13) BaibaKo (обновляемая) скачать через торрент бесплатно
  • Родословная / Bloodline (2015) WEBRip [H.264 / 720p-LQ] (Сезон 1, серии 1-2 из 13) (AlexFilm) (обновляемая) скачать через торрент бесплатно
  • Родословная / Bloodline (2015) WEBRip [H.264 / 720p-LQ] (Сезон 1, серии 1-2 из 13) (BaibaKo) (обновляемая) скачать через торрент бесплатно
  • Родословная / Bloodline (2016) WEBRip (сезон 2, серии 1-5 из 13) NewStudio (обновляемая) скачать торрент бесплатно
  • Родословная / Bloodline (2016) WEBRip [H.264 / 720p-LQ] (Сезон 2, серии 1-10 из 13) ColdFilm (обновляемая) скачать торрент бесплатно


    • Комментарии (0):

      Информация

      Информация

        Посетители, находящиеся в группе Гости, не могут оставлять комментарии в данной новости.

        ↓ Меню




        ↓ Опрос

        Вы добавили сайт в закладки?
        Да
        Нет


        Top 10 за неделю (Фильмы)