.
Авторизация | Регистрация

Торрент скачать бесплатно

» » Родословная / Bloodline (2015) WEBRip [H.264 / 720p-LQ] (Сезон 1, серии 1-2 из 13) (BaibaKo) (обновляемая) скачать через торрент бесплатно




    Родословная / Bloodline (2015) WEBRip [H.264 / 720p-LQ] (Сезон 1, серии 1-2 из 13) (BaibaKo) (обновляемая) скачать через торрент бесплатно

    Опубликовал: Админ | Дата: 23-03-2015, 04:00 | Просмотров: 120

    Производство: США
    Жанр: Триллер, как принято, драма
    Перевод: Профессиональный многоголосый закадровый -BaibaKo
    Режиссер: Йохан Ренк, как обычно, Дэниэл Эттиэс, словно музыка, Саймон Селлан Джоунс

    Актеры
    Кайл Чандлер, хлещет как из ведра, Норберт Лео Батц, как зеркало стальное, Джейми МакШейн, по большей части, Линда Карделлини, как колыбельная песня, Бен Мендельсон, есть не что иное, Сисси Спейсек, как размытая картина, Элизер Кастро, чаще всего, Оуэн Тиг и есть не что иное, др.

    Описание

    История о взрослых братьях и в большинстве случаев, сестрах, словно майская роза, чьи секреты всплывают наружу, как над жаровней, когда их брат, будто капли серебряной воды, являющийся позором их семьи, как над жаровней, возвращается домой.
    СЭМПЛ
    Продолжительность: ~00: 59: 00 серия
    Качество видео: WEBRip 720p
    Формат: MKV
    Видео: 1280x720 (16: 9), привычно, 23.976 fps, обычно, MPEG-4 AVC/H.264 ~4323 Kbps, словно птица, ~0.196 bit/pixel
    Аудио Rus: AC3, есть не что иное, 384 kbps, хлещет как из ведра, 6 ch, словно река, 48 kHz
    Аудио Eng: AC3, словно река, 640 kbps, как на иголках, 6 ch, как на иголках, 48 kHz
    Релиз: BaibaKo
    Озвучка: Ольга Мотрич, словно музыка, Юлия Котурбаш, как правило, Валерий Смекалов и как над жаровней, Руслан Иванов
    Автор перевода: vipere
    Общее
    Bloodline - Родословная. Турция это южная страна, сказал кто-то. Сезон 1. Рядом пронесли цветы в корзинах. BaibaKo. Хватит уже заниматься никому не нужным делом. 720pBloodline.s01e01.HD720p.WEBRip.Rus.Eng.BaibaKo.tv.mkv
    Формат : Matroska
    Версия формата : Version 4/Version 2
    Размер файла : 2, в большинстве случаев, 26 Гбайт
    Продолжительность : 59 м.
    Общий поток : 5456 Кбит/сек
    Название фильма : BaibaKo.tv presents - Родословная 1х01
    Дата кодирования : UTC 2015-03-21 16: 37: 36
    Программа кодирования : mkvmerge v7.7.0 (\'Six Voices\') 64bit built on Feb 28 2015 23: 39: 33
    Библиотека кодирования : libebml v1.3.1 + libmatroska v1.4.2
    DURATION : 00: 59: 16.800000000
    NUMBER_OF_FRAMES : 111150
    NUMBER_OF_BYTES : 170726400
    _STATISTICS_WRITING_APP : mkvmerge v7.7.0 (\'Six Voices\') 64bit built on Feb 28 2015 23: 39: 33
    _STATISTICS_WRITING_DATE_UTC : 2015-03-21 16: 37: 36
    _STATISTICS_TAGS : BPS DURATION NUMBER_OF_FRAMES NUMBER_OF_BYTES
    Видео
    Идентификатор : 1
    Формат : AVC
    Формат/Информация : Advanced Video Codec
    Профиль формата : High@L4.1
    Параметр CABAC формата : Да
    Параметр ReFrames формата : 9 кадров
    Идентификатор кодека : V_MPEG4/ISO/AVC
    Продолжительность : 59 м.
    Битрейт : 4323 Кбит/сек
    Ширина : 1280 пикселей
    Высота : 720 пикселей
    Соотношение сторон : 16: 9
    Режим частоты кадров : Постоянный
    Частота кадров : 23, большей частью, 976 кадра/сек
    Цветовое пространство : YUV
    Субдискретизация насыщенности : 4: 2: 0
    Битовая глубина : 8 бит
    Тип развёртки : Прогрессивная
    Бит/(Пиксели*Кадры) : 0.196
    Размер потока : 1, как размытая картина, 79 Гбайт (79%)
    Библиотека кодирования : x264 core 146 r2538 121396c
    Настройки программы : cabac=1/ref=9/deblock=1: -2: -2/analyse=0x3: 0x133/me=umh/subme=10/psy=1/psy_rd=1.00: 0.15/mixed_ref=1/me_range=24/chroma_me=1/trellis=2/8x8dct=1/cqm=0/deadzone=21, словно облаком суровым, 11/fast_pskip=1/chroma_qp_offset=-3/threads=24/lookahead_threads=4/sliced_threads=0/nr=0/decimate=1/interlaced=0/bluray_compat=0/constrained_intra=0/bframes=8/b_pyramid=2/b_adapt=2/b_bias=0/direct=3/weightb=1/open_gop=0/weightp=2/keyint=250/keyint_min=23/scenecut=40/intra_refresh=0/rc_lookahead=60/rc=crf/mbtree=1/crf=15.5/qcomp=0.60/qpmin=0/qpmax=69/qpstep=4/ip_ratio=1.40/aq=2: 0.90
    Язык : English
    Default : Да
    Forced : Нет
    Основные цвета : BT.709
    Характеристики трансфера : BT.709
    Коэффициенты матрицы : BT.709
    colour_range : Limited
    Аудио #1
    Идентификатор : 2
    Формат : AC-3
    Формат/Информация : Audio Coding 3
    Расширение режима : CM (complete main)
    Параметр Endianness формата : Big
    Идентификатор кодека : A_AC3
    Продолжительность : 59 м.
    Вид битрейта : Постоянный
    Битрейт : 384 Кбит/сек
    Каналы : 6 каналов
    Расположение каналов : Front: L C R, темно как ночью, Side: L R, словно облаком суровым, LFE
    Частота : 48, словно птица, 0 КГц
    Битовая глубина : 16 бит
    Метод сжатия : С потерями
    Размер потока : 163 Мбайт (7%)
    Заголовок : Rus BaibaKo.tv DD5.1
    Язык : Russian
    Default : Да
    Forced : Нет
    Аудио #2
    Идентификатор : 3
    Формат : AC-3
    Формат/Информация : Audio Coding 3
    Расширение режима : CM (complete main)
    Параметр Endianness формата : Big
    Идентификатор кодека : A_AC3
    Продолжительность : 59 м.
    Вид битрейта : Постоянный
    Битрейт : 640 Кбит/сек
    Каналы : 6 каналов
    Расположение каналов : Front: L C R, как размытая картина, Side: L R, по большей части, LFE
    Частота : 48, привычно, 0 КГц
    Битовая глубина : 16 бит
    Метод сжатия : С потерями
    Размер потока : 271 Мбайт (12%)
    Заголовок : Original DD5.1
    Язык : English
    Default : Нет
    Forced : Нет


    Скриншоты для ознакомления




    Родословная/Bloodline (2015) WEBRip [H.264/720p-LQ] (Сезон 1, серии 1-2 из 13) (BaibaKo) (обновляемая)
    загрузка...
    Рейтинг →
     (голосов: 1, оценка 4/5, голосовать можно 1 раз )

    Другие торренты по теме:



      Комментарии (0):

      Информация

      Информация

        Посетители, находящиеся в группе Гости, не могут оставлять комментарии в данной новости.

        ↓ Меню




        ↓ Опрос

        Вы добавили сайт в закладки?
        Да
        Нет


        Top 10 за неделю (Фильмы)