.
Авторизация | Регистрация
Хочешь лучшие торренты? Добавь свой email!
Добавить

Торрент скачать бесплатно

» » Родословная / Bloodline (2015) WEBRip [H.264 / 720p-LQ] (Сезон 1, серии 1-2 из 13) (AlexFilm) (обновляемая) скачать через торрент бесплатно




    Родословная / Bloodline (2015) WEBRip [H.264 / 720p-LQ] (Сезон 1, серии 1-2 из 13) (AlexFilm) (обновляемая) скачать через торрент бесплатно

    Опубликовал: Админ | Дата: 23-03-2015, 04:00 | Просмотров: 139

    Производство: США
    Жанр: Триллер, драма
    Перевод: Профессиональный многоголосый закадровый -AlexFilm
    Режиссер: Йохан Ренк, Дэниэл Эттиэс, Саймон Селлан Джоунс

    Актеры
    Кайл Чандлер, Норберт Лео Батц, Джейми МакШейн, Линда Карделлини, Бен Мендельсон, Сисси Спейсек, Элизер Кастро, Оуэн Тиг и др.

    Описание

    История о взрослых братьях и сестрах, чьи секреты всплывают наружу, когда их брат, являющийся позором их семьи, возвращается домой.
    СЭМПЛ
    Продолжительность: ~00: 59: 00 серия
    Качество видео: WEBRip 720p
    Формат: MKV
    Видео: 1280x720 (16: 9), 23.976 fps, MPEG-4 AVC/H.264 ~4341 Kbps, ~0.196 bit/pixel
    Аудио Rus: AC3, 384 kbps, 6 ch, 48 kHz
    Аудио Eng: AC3, 384 kbps, 6 ch, 48 kHz
    Релиз: AlexFilm
    Озвучка: Евгения Тихонова, Михаил Суслов, Сергей Пономарёв, Роман Сопко
    Автор перевода: Константин Кривоногов
    Общее
    Bloodline - Родословная. Сезон 1. Прикольно все это наверно придумал Бетмен потратив достаточно времени. AlexFilm. 720pBloodline.s01e01.WEBRip.720p.Rus.Eng.AlexFilm.mkv
    Формат : Matroska
    Версия формата : Version 4/Version 2
    Размер файла : 2, 15 Гбайт
    Продолжительность : 59 м.
    Общий поток : 5213 Кбит/сек
    Название фильма : Bloodline 1x01 @ AlexFilm
    Дата кодирования : UTC 2015-03-21 22: 27: 57
    Программа кодирования : mkvmerge v6.6.0 (\'The Edge Of The In Between\') built on Dec 1 2013 17: 55: 00
    Библиотека кодирования : libebml v1.3.0 + libmatroska v1.4.1
    Видео
    Идентификатор : 1
    Формат : AVC
    Формат/Информация : Advanced Video Codec
    Профиль формата : High@L4.1
    Параметр CABAC формата : Да
    Параметр ReFrames формата : 9 кадров
    Идентификатор кодека : V_MPEG4/ISO/AVC
    Продолжительность : 59 м.
    Битрейт : 4341 Кбит/сек
    Ширина : 1280 пикселей
    Высота : 720 пикселей
    Соотношение сторон : 16: 9
    Режим частоты кадров : Постоянный
    Частота кадров : 23, 976 кадра/сек
    Цветовое пространство : YUV
    Субдискретизация насыщенности : 4: 2: 0
    Битовая глубина : 8 бит
    Тип развёртки : Прогрессивная
    Бит/(Пиксели*Кадры) : 0.196
    Размер потока : 1, 79 Гбайт (83%)
    Библиотека кодирования : x264 core 146 r2538 121396c
    Настройки программы : cabac=1/ref=9/deblock=1: -2: -2/analyse=0x3: 0x133/me=umh/subme=10/psy=1/psy_rd=1.00: 0.15/mixed_ref=1/me_range=24/chroma_me=1/trellis=2/8x8dct=1/cqm=0/deadzone=21, 11/fast_pskip=1/chroma_qp_offset=-3/threads=24/lookahead_threads=4/sliced_threads=0/nr=0/decimate=1/interlaced=0/bluray_compat=0/constrained_intra=0/bframes=8/b_pyramid=2/b_adapt=2/b_bias=0/direct=3/weightb=1/open_gop=0/weightp=2/keyint=250/keyint_min=23/scenecut=40/intra_refresh=0/rc_lookahead=60/rc=crf/mbtree=1/crf=15.5/qcomp=0.60/qpmin=0/qpmax=69/qpstep=4/ip_ratio=1.40/aq=2: 0.90
    Язык : English
    Default : Да
    Forced : Нет
    Основные цвета : BT.709
    Характеристики трансфера : BT.709
    Коэффициенты матрицы : BT.709
    colour_range : Limited
    Аудио #1
    Идентификатор : 2
    Формат : AC-3
    Формат/Информация : Audio Coding 3
    Расширение режима : CM (complete main)
    Параметр Endianness формата : Big
    Идентификатор кодека : A_AC3
    Продолжительность : 59 м.
    Вид битрейта : Постоянный
    Битрейт : 384 Кбит/сек
    Каналы : 6 каналов
    Расположение каналов : Front: L C R, Side: L R, LFE
    Частота : 48, 0 КГц
    Битовая глубина : 16 бит
    Метод сжатия : С потерями
    Размер потока : 162 Мбайт (7%)
    Заголовок : DD5.1 AlexFilm
    Язык : Russian
    Default : Да
    Forced : Нет
    Аудио #2
    Идентификатор : 3
    Формат : AC-3
    Формат/Информация : Audio Coding 3
    Расширение режима : CM (complete main)
    Параметр Endianness формата : Big
    Идентификатор кодека : A_AC3
    Продолжительность : 59 м.
    Вид битрейта : Постоянный
    Битрейт : 384 Кбит/сек
    Каналы : 6 каналов
    Расположение каналов : Front: L C R, Side: L R, LFE
    Частота : 48, 0 КГц
    Битовая глубина : 16 бит
    Метод сжатия : С потерями
    Размер потока : 162 Мбайт (7%)
    Заголовок : DD5.1 Original
    Язык : English
    Default : Нет
    Forced : Нет


    Скриншоты для ознакомления




    Родословная/Bloodline (2015) WEBRip [H.264/720p-LQ] (Сезон 1, серии 1-2 из 13) (AlexFilm) (обновляемая)
    загрузка...
    Рейтинг →
     (голосов: 1, оценка 3/5, голосовать можно 1 раз )

    Другие торренты по теме:

  • Моя родословная. Ирина Роднина (2010) SATRip скачать через торрент бесплатно
  • Родословная / Bloodline (2015) WEBRip (сезон 1, серии 1-2 из 13) AlexFilm (обновляемая) скачать через торрент бесплатно
  • Родословная / Bloodline (2015) WEBRip (сезон 1, серии 1 из 13) NewStudio (обновляемая) скачать через торрент бесплатно
  • Родословная / Bloodline (2015) WEBRip (сезон 1, серии 1 из 13) BaibaKo (обновляемая) скачать через торрент бесплатно
  • Родословная / Bloodline (2015) WEBRip [H.264 / 720p-LQ] (Сезон 1, серии 1-2 из 13) (BaibaKo) (обновляемая) скачать через торрент бесплатно
  • Родословная / Bloodline (2015) WEBRip [H.264 / 720p-LQ] (Сезон 1, серия 1 из 13) (NewStudio) (обновляемая) скачать через торрент бесплатно
  • Родословная / Bloodline (2016) WEBRip (сезон 2, серии 1-5 из 13) NewStudio (обновляемая)
  • Родословная / Bloodline (2016) WEBRip [H.264 / 720p-LQ] (Сезон 2, серии 1-10 из 13) ColdFilm (обновляемая)


    • Комментарии (0):

      Информация

      Информация

        Посетители, находящиеся в группе Гости, не могут оставлять комментарии в данной новости.

        ↓ Меню




        ↓ Опрос

        Вы добавили сайт в закладки?
        Да
        Нет


        Top 10 за месяц (Фильмы)