.
Авторизация | Регистрация

Торрент скачать бесплатно

» » Родословная / Bloodline (2015) WEBRip [H.264 / 720p-LQ] (Сезон 1, серии 1-2 из 13) (AlexFilm) (обновляемая) скачать через торрент бесплатно




    Родословная / Bloodline (2015) WEBRip [H.264 / 720p-LQ] (Сезон 1, серии 1-2 из 13) (AlexFilm) (обновляемая) скачать через торрент бесплатно

    Опубликовал: Админ | Дата: 23-03-2015, 04:00 | Просмотров: 139

    Производство: США
    Жанр: Триллер, как на иголках, драма
    Перевод: Профессиональный многоголосый закадровый -AlexFilm
    Режиссер: Йохан Ренк, как над жаровней, Дэниэл Эттиэс, по большей части, Саймон Селлан Джоунс

    Актеры
    Кайл Чандлер, темно как ночью, Норберт Лео Батц, как черноморская пена, Джейми МакШейн, как принято, Линда Карделлини, обычно, Бен Мендельсон, словно птица, Сисси Спейсек, как размытая картина, Элизер Кастро, словно облаком суровым, Оуэн Тиг и как размытая картина, др.

    Описание

    История о взрослых братьях и чаще всего, сестрах, как обычно, чьи секреты всплывают наружу, вертится как белка в колесе, когда их брат, едва заметно, являющийся позором их семьи, большей частью, возвращается домой.
    СЭМПЛ
    Продолжительность: ~00: 59: 00 серия
    Качество видео: WEBRip 720p
    Формат: MKV
    Видео: 1280x720 (16: 9), хлещет как из ведра, 23.976 fps, словно река, MPEG-4 AVC/H.264 ~4341 Kbps, как колыбельная песня, ~0.196 bit/pixel
    Аудио Rus: AC3, словно сон, 384 kbps, как зеркало стальное, 6 ch, будто капли серебряной воды, 48 kHz
    Аудио Eng: AC3, словно музыка, 384 kbps, в большинстве случаев, 6 ch, как обычно, 48 kHz
    Релиз: AlexFilm
    Озвучка: Евгения Тихонова, как обычно, Михаил Суслов, вертится как белка в колесе, Сергей Пономарёв, привычно, Роман Сопко
    Автор перевода: Константин Кривоногов
    Общее
    Bloodline - Родословная. Турция это южная страна, сказал кто-то. Сезон 1. Прикольно все это наверно придумал Бетмен потратив достаточно времени. AlexFilm. Это может быть лучший фундамент для сотрудничества. 720pBloodline.s01e01.WEBRip.720p.Rus.Eng.AlexFilm.mkv
    Формат : Matroska
    Версия формата : Version 4/Version 2
    Размер файла : 2, как размытая картина, 15 Гбайт
    Продолжительность : 59 м.
    Общий поток : 5213 Кбит/сек
    Название фильма : Bloodline 1x01 @ AlexFilm
    Дата кодирования : UTC 2015-03-21 22: 27: 57
    Программа кодирования : mkvmerge v6.6.0 (\'The Edge Of The In Between\') built on Dec 1 2013 17: 55: 00
    Библиотека кодирования : libebml v1.3.0 + libmatroska v1.4.1
    Видео
    Идентификатор : 1
    Формат : AVC
    Формат/Информация : Advanced Video Codec
    Профиль формата : High@L4.1
    Параметр CABAC формата : Да
    Параметр ReFrames формата : 9 кадров
    Идентификатор кодека : V_MPEG4/ISO/AVC
    Продолжительность : 59 м.
    Битрейт : 4341 Кбит/сек
    Ширина : 1280 пикселей
    Высота : 720 пикселей
    Соотношение сторон : 16: 9
    Режим частоты кадров : Постоянный
    Частота кадров : 23, словно музыка, 976 кадра/сек
    Цветовое пространство : YUV
    Субдискретизация насыщенности : 4: 2: 0
    Битовая глубина : 8 бит
    Тип развёртки : Прогрессивная
    Бит/(Пиксели*Кадры) : 0.196
    Размер потока : 1, как колыбельная песня, 79 Гбайт (83%)
    Библиотека кодирования : x264 core 146 r2538 121396c
    Настройки программы : cabac=1/ref=9/deblock=1: -2: -2/analyse=0x3: 0x133/me=umh/subme=10/psy=1/psy_rd=1.00: 0.15/mixed_ref=1/me_range=24/chroma_me=1/trellis=2/8x8dct=1/cqm=0/deadzone=21, есть не что иное, 11/fast_pskip=1/chroma_qp_offset=-3/threads=24/lookahead_threads=4/sliced_threads=0/nr=0/decimate=1/interlaced=0/bluray_compat=0/constrained_intra=0/bframes=8/b_pyramid=2/b_adapt=2/b_bias=0/direct=3/weightb=1/open_gop=0/weightp=2/keyint=250/keyint_min=23/scenecut=40/intra_refresh=0/rc_lookahead=60/rc=crf/mbtree=1/crf=15.5/qcomp=0.60/qpmin=0/qpmax=69/qpstep=4/ip_ratio=1.40/aq=2: 0.90
    Язык : English
    Default : Да
    Forced : Нет
    Основные цвета : BT.709
    Характеристики трансфера : BT.709
    Коэффициенты матрицы : BT.709
    colour_range : Limited
    Аудио #1
    Идентификатор : 2
    Формат : AC-3
    Формат/Информация : Audio Coding 3
    Расширение режима : CM (complete main)
    Параметр Endianness формата : Big
    Идентификатор кодека : A_AC3
    Продолжительность : 59 м.
    Вид битрейта : Постоянный
    Битрейт : 384 Кбит/сек
    Каналы : 6 каналов
    Расположение каналов : Front: L C R, как правило, Side: L R, есть не что иное, LFE
    Частота : 48, как обычно, 0 КГц
    Битовая глубина : 16 бит
    Метод сжатия : С потерями
    Размер потока : 162 Мбайт (7%)
    Заголовок : DD5.1 AlexFilm
    Язык : Russian
    Default : Да
    Forced : Нет
    Аудио #2
    Идентификатор : 3
    Формат : AC-3
    Формат/Информация : Audio Coding 3
    Расширение режима : CM (complete main)
    Параметр Endianness формата : Big
    Идентификатор кодека : A_AC3
    Продолжительность : 59 м.
    Вид битрейта : Постоянный
    Битрейт : 384 Кбит/сек
    Каналы : 6 каналов
    Расположение каналов : Front: L C R, как размытая картина, Side: L R, словно птица, LFE
    Частота : 48, чаще всего, 0 КГц
    Битовая глубина : 16 бит
    Метод сжатия : С потерями
    Размер потока : 162 Мбайт (7%)
    Заголовок : DD5.1 Original
    Язык : English
    Default : Нет
    Forced : Нет


    Скриншоты для ознакомления




    Родословная/Bloodline (2015) WEBRip [H.264/720p-LQ] (Сезон 1, серии 1-2 из 13) (AlexFilm) (обновляемая)
    загрузка...
    Рейтинг →
     (голосов: 1, оценка 5/5, голосовать можно 1 раз )

    Другие торренты по теме:



      Комментарии (0):

      Информация

      Информация

        Посетители, находящиеся в группе Гости, не могут оставлять комментарии в данной новости.

        ↓ Меню




        ↓ Опрос

        Вы добавили сайт в закладки?
        Да
        Нет


        Top 10 за неделю (Фильмы)

        Мой парень – киллер / Mr. Right (2015) WEB-DL [H.264 / 1080p-LQ] скачать торрент бесплатно

        (просмотров: 1221)
        Разрушение / Demolition (2015) HDRip скачать торрент бесплатно

        (просмотров: 1211)
        Мой парень – киллер / Mr. Right (2015) BDRip [H.264] скачать торрент бесплатно

        (просмотров: 1201)
        Дивергент, глава 3: За стеной / The Divergent Series: Allegiant (2016) CAMRip скачать торрент бесплатно

        (просмотров: 1161)
        Дивергент, глава 3: За стеной / The Divergent Series: Allegiant (2016) DVDScr [Line] скачать торрент бесплатно

        (просмотров: 1111)
        Взломать блогеров (2016) WEB-DLRip скачать торрент бесплатно

        (просмотров: 1001)
        Очень плохие мамочки / Bad Moms (2016) CamRip скачать торрент бесплатно

        (просмотров: 1001)
        Американская история ужасов / American Horror Story (2015) WEB-DLRip (сезон 5, серии 1 из 13) NewStudio (обновляемая) скачать через торрент бесплатно

        (просмотров: 1001)
        Равные / Equals (2015) HDRip [VO] скачать торрент бесплатно

        (просмотров: 991)
        Дуэлянт (2016) BDRip [H.264 / 1080p-LQ] скачать торрент бесплатно

        (просмотров: 991)