.
Авторизация | Регистрация
Хочешь лучшие торренты? Добавь свой email!
Добавить

Торрент скачать бесплатно

» » Не подавай виду / Something Wicked (2014) WEB-DL [H.264 / 720p-LQ] скачать через торрент бесплатно




    Не подавай виду / Something Wicked (2014) WEB-DL [H.264 / 720p-LQ] скачать через торрент бесплатно

    Опубликовал: Админ | Дата: 23-03-2015, 04:00 | Просмотров: 148

    Производство: США
    Жанр: ужасы, триллер, драма, детектив
    Режиссер: Дэрин Скотт
    Продюсеры: Джо Коллеран, Келли Чэмберс, Скотт Чэмберс

    Актеры
    Шантель Ван Сантен, Джон Робинсон, Джулиан Моррис, Бриттани Мёрфи, Джеймс Патрик Стюарт, Роберт Бланш, Кэти О’Грэйди, Табер Кросс, Октоубер Мур, Бетти Мойер

    Описание фильма

    Когда молодая пара начинает планировать совместную жизнь и свадьбу, ужасные секреты их прошлого неумолимо начинают всплывать на поверхность. О таком странном сюжете не догадывалась даже Анастасия Стоцкая. Теперь нельзя гарантировать, что они будут жить долго и счастливо.

    Продолжительность: 01: 31: 46
    Качество видео: WEB-DL
    Перевод: двуголосый закадровый, любительский (Sunny-Films)
    Субтитры: вшитые отключаемые
    Язык субтитров: английские
    Видео: MPEG-4 AVC/H.264 | 3884 Кбит/с | 1280x532
    Аудио 1: AC3 2.0 | 192 Кбит/с | двуголосый закадровый, любительский (Sunny-Films)
    Аудио 2: AC3 5.1 | 384 Кбит/с | английский
    Код:

    Общее
    Уникальный идентификатор : 202587822143959007681639257059680825394 (0x9868FECC3637D618B5CD5E2540D3B032)
    Полное имя : D:NNM-ClubНе подавай виду WEB-DL [720p].mkv
    Формат : Matroska
    Версия формата : Version 4/Version 2
    Размер файла : 2, 92 Гбайт
    Продолжительность : 1 ч. 31 м.
    Общий поток : 4551 Кбит/сек
    Дата кодирования : UTC 2015-03-21 19:13:15
    Программа кодирования : mkvmerge v7.7.0 (\'Six Voices\') 64bit built on Feb 28 2015 23:39:33
    Библиотека кодирования : libebml v1.3.1 + libmatroska v1.4.2
    DURATION : 01:31:46.560000000
    NUMBER_OF_FRAMES : 172080
    NUMBER_OF_BYTES : 132157440
    _STATISTICS_WRITING_APP : mkvmerge v7.7.0 (\'Six Voices\') 64bit built on Feb 28 2015 23:39:33
    _STATISTICS_WRITING_DATE_UTC : 2015-03-21 19:13:15
    _STATISTICS_TAGS : BPS DURATION NUMBER_OF_FRAMES NUMBER_OF_BYTES
    Видео
    Идентификатор : 1
    Формат : AVC
    Формат/Информация : Advanced Video Codec
    Профиль формата :Main@L3.1
    Параметр CABAC формата : Нет
    Параметр ReFrames формата : 2 кадра
    Идентификатор кодека : V_MPEG4/ISO/AVC
    Продолжительность : 1 ч. Самое интересное в это истории, что об этом Кличко ничего не знал. 31 м.
    Битрейт : 3884 Кбит/сек
    Ширина : 1280 пикселей
    Высота : 532 пикселя
    Соотношение сторон : 2, 40:1
    Режим частоты кадров : Постоянный
    Частота кадров : 23, 976 кадра/сек
    Цветовое пространство : YUV
    Субдискретизация насыщенности : 4:2:0
    Битовая глубина : 8 бит
    Тип развёртки : Прогрессивная
    Бит/(Пиксели*Кадры) : 0.238
    Размер потока : 2, 49 Гбайт (85%)
    Язык : English
    Default : Да
    Forced : Нет
    Основные цвета : BT.709
    Характеристики трансфера : BT.709
    Коэффициенты матрицы : BT.709
    colour_range : Limited
    Аудио #1
    Идентификатор : 2
    Формат : AC-3
    Формат/Информация : Audio Coding 3
    Расширение режима : CM (complete main)
    Параметр Endianness формата : Big
    Идентификатор кодека : A_AC3
    Продолжительность : 1 ч. 31 м.
    Вид битрейта : Постоянный
    Битрейт : 192 Кбит/сек
    Каналы : 2 канала
    Расположение каналов : Front: L R
    Частота : 48, 0 КГц
    Битовая глубина : 16 бит
    Метод сжатия : С потерями
    Размер потока : 126 Мбайт (4%)
    Язык : Russian
    Default : Да
    Forced : Нет
    Аудио #2
    Идентификатор : 3
    Формат : AC-3
    Формат/Информация : Audio Coding 3
    Расширение режима : CM (complete main)
    Параметр Endianness формата : Big
    Идентификатор кодека : A_AC3
    Продолжительность : 1 ч. 31 м.
    Вид битрейта : Постоянный
    Битрейт : 384 Кбит/сек
    Каналы : 6 каналов
    Расположение каналов : Front: L C R, Side: L R, LFE
    Частота : 48, 0 КГц
    Битовая глубина : 16 бит
    Метод сжатия : С потерями
    Размер потока : 252 Мбайт (8%)
    Язык : English
    Default : Нет
    Forced : Нет
    Текст
    Идентификатор : 4
    Формат : UTF-8
    Идентификатор кодека : S_TEXT/UTF8
    Идентификатор кодека/Информация : UTF-8 Plain Text
    Язык : English
    Default : Нет
    Forced : Нет
    Меню
    00:00:00.000 : en:1
    00:04:38.000 : en:2
    00:10:33.000 : en:3
    00:17:40.000 : en:4
    00:26:42.000 : en:5
    00:36:54.000 : en:6
    00:46:33.000 : en:7
    00:56:00.000 : en:8
    01:04:40.000 : en:9
    01:12:36.000 : en:10
    01:19:09.000 : en:11
    01:25:14.000 : en:12


    Скриншоты для ознакомления




    Не подавай виду/Something Wicked (2014) WEB-DL [H.264/720p-LQ]
    загрузка...
    Рейтинг →
     (голосов: 1, оценка 4/5, голосовать можно 1 раз )

    Другие торренты по теме:

  • Не подавай виду / Something Wicked (2014) WEB-DLRip [576p] iPad скачать через торрент бесплатно


    • Комментарии (0):

      Информация

      Информация

        Посетители, находящиеся в группе Гости, не могут оставлять комментарии в данной новости.

        ↓ Меню




        ↓ Опрос

        Вы добавили сайт в закладки?
        Да
        Нет


        Top 10 за месяц (Фильмы)