.
Авторизация | Регистрация
Хочешь лучшие торренты? Добавь свой email!
Добавить

Торрент скачать бесплатно

» » Я - зомби / iZombie (2015) WEB-DLRip (cезон 1, серии 1 из 13) (ViruseProject) (обновляемая) скачать через торрент бесплатно




    Я - зомби / iZombie (2015) WEB-DLRip (cезон 1, серии 1 из 13) (ViruseProject) (обновляемая) скачать через торрент бесплатно

    Опубликовал: Админ | Дата: 22-03-2015, 04:00 | Просмотров: 139

    Производство: США, CW
    Жанр: ужасы, фантастика, криминал
    Перевод: Многоголосый закадровый, профессиональный: ViruseProject

    Автор перевода : Татьяна Масаковская
    Озвучка : Елена Емельянова, Ирина Обрезкова, Алексей Кизуб, Игорь Сергеев
    Работа с видео : Евгений Шаров
    Монтаж, сведение звука : Виталий Емельянов
    Режиссер: Эйчиро Хасуми

    Актеры
    Роуз МакИвер, Малкольм Гудвин, Рахул Коли, Молли Хэйгэн, Ник Пурча, Элиз Гэтьен, Мэттью МакКоулл, Роб Карпентер и др.

    Описание фильма

    После вечеринки на яхте Оливия Мур, будущий кардиохирург, жизнерадостная, активная и пышущая здоровьем девушка, становится зомби. Теперь Лив похожа на представителя готов: бледная кожа, тёмные круги вокруг глаз и почти белые волосы. Она устраивается на работу в морг, стажёром доктора Рави Чакрабарти, чтобы иметь доступ к мозгам, которые ей приходиться есть для поддержания человеческой сущности. Однако с каждым съеденным мозгом Лив получает воспоминания трупа. С помощью доктора Чакрабарти, узнавшего её секрет, и детектива полиции Клайва Бабино Лив начинает раскрывать убийства тех людей, чей мозг съела.

    Дата мировой премьеры: 17 марта 2015
    Продолжительность: ~00: 43: 00 - серия
    Качество видео: WEB-DLRip
    СЭМПЛ
    Видеокодек: Xvid
    Битрейт видео: ~1400 kbps
    Размер кадра: 720x400
    Аудиокодек: MP3
    Битрейт аудио: 192 kbps, 2 ch
    Код:

    General
    Complete name : G:Serials - СериалыiZombie - Я ЗомбиiZombie.S01.ViruseProjectiZombie.S01E01.ViruseProject.avi
    Format : AVI
    Format/Info : Audio Video Interleave
    File size : 500 MiB
    Duration : 42mn 55s
    Overall bit rate : 1 630 Kbps
    Writing application : VirtualDubMod 1.5.10.2 (build 2540/release)
    Writing library : VirtualDubMod build 2540/release
    Video
    ID : 0
    Format : MPEG-4 Visual
    Format profile : Advanced Simple@L5
    Format settings, BVOP : Yes
    Format settings, QPel : No
    Format settings, GMC : No warppoints
    Format settings, Matrix : Default (MPEG)
    Codec ID : XVID
    Codec ID/Hint : XviD
    Duration : 42mn 55s
    Bit rate : 1 429 Kbps
    Width : 720 pixels
    Height : 400 pixels
    Display aspect ratio : 16:9
    Frame rate : 23.976 fps
    Color space : YUV
    Chroma subsampling : 4:2:0
    Bit depth : 8 bits
    Scan type : Progressive
    Compression mode : Lossy
    Bits/(Pixel*Frame) : 0.207
    Stream size : 439 MiB (88%)
    Writing library : XviD 1.2.1 (UTC 2008-12-04)
    Audio
    ID : 1
    Format : MPEG Audio
    Format version : Version 1
    Format profile : Layer 3
    Codec ID : 55
    Codec ID/Hint : MP3
    Duration : 42mn 55s
    Bit rate mode : Constant
    Bit rate : 192 Kbps
    Channel count : 2 channels
    Sampling rate : 48.0 KHz
    Compression mode : Lossy
    Stream size : 58.9 MiB (12%)
    Alignment : Aligned on interleaves
    Interleave, duration : 42 ms (1.00 video frame)
    Interleave, preload duration : 504 ms
    Writing library : LAME3.98r
    Encoding settings : -m s -V 4 -q 2 -lowpass 18.6 -b 192


    Скриншоты для ознакомления




    Я - зомби/iZombie (2015) WEB-DLRip (cезон 1, серии 1 из 13) (ViruseProject) (обновляемая)
    загрузка...
    Рейтинг →
     (голосов: 1, оценка 5/5, голосовать можно 1 раз )

    Другие торренты по теме:

  • Гадкий я 3 / Despicable Me 3 (2017) BDRip [H.264 / 1080p-LQ]
  • Алан Брэдли | О, я от призраков больна (2017) [MP3]
  • Дмитрий Григоренко | Я из Зоны. Небо без нас (2017) [FB2]
  • Я, я и только я / I, Me aur Main (2013) DVDRip скачать через торрент бесплатно
  • Я воин / Я Омега / I Am Omega (2007) BDRip [1080p] скачать через торрент бесплатно
  • Я стыжусь своего тела / Я соромлюсь свого тіла (сезон 2, выпуск 1-3 из 12) (2015) SATRip / WEBRip [RUS / UKR] [обновляемая]
  • Я. Я. Гришин | Истоки кризисов (1991) [DJVU] скачать через торрент бесплатно
  • Рома Жуков - Я люблю Вас, девочки, я люблю Вас, мальчики (1994) [FLAC|image+.cue]<Pop> скачать через торрент бесплатно


    • Комментарии (0):

      Информация

      Информация

        Посетители, находящиеся в группе Гости, не могут оставлять комментарии в данной новости.

        ↓ Меню




        ↓ Опрос

        Вы добавили сайт в закладки?
        Да
        Нет


        Top 10 за месяц (Фильмы)