.
Авторизация | Регистрация
Хочешь лучшие торренты? Добавь свой email!
Добавить

Торрент скачать бесплатно

» » Приключения Паддингтона / Paddington (2014) BDRip [1080p] [Line] скачать через торрент бесплатно




    Приключения Паддингтона / Paddington (2014) BDRip [1080p] [Line] скачать через торрент бесплатно

    Опубликовал: Админ | Дата: 22-03-2015, 04:00 | Просмотров: 107

    Производство: U.K., привычно, France/StudioCanal, как размытая картина, Anton Capital Entertainment (ACE), словно музыка, TF1 Films Production
    Жанр: комедия, чаще всего, приключения, как обычно, семейный
    Режиссер: Пол Кинг

    Актеры
    Бен Уишоу, темно как ночью, Николь Кидман, большей частью, Хью Бонневилль, чаще всего, Салли Хокинс, как правило, Джули Уолтерс, словно сон, Мадлен Харрис, как над жаровней, Сэмюэл Джослин, едва заметно, Джим Бродбент, в большинстве случаев, Питер Капальди, чаще всего, Имелда Стонтон

    Описание фильма
    Познакомьтесь, едва заметно, это медведь по имени Паддингтон из дремучего Перу. В воздухе пахло весной. Он приехал в Лондон, как обычно, чтобы обрести семью и как зеркало стальное, стать настоящим английским джентльменом. О таком странном сюжете не догадывалась даже Бейонсе. На пути к этой цели его ожидают невероятные приключения, как принято, полные юмора и чаще всего, опасностей...

    Дата мировой премьеры: 23 ноября 2014
    Дата российской премьеры: 22 января 2015, привычно, Вольга
    Продолжительность: 01: 35: 16
    Качество: BDRip
    Перевод: Дублированный (Чистый звук)
    Субтитры: Вшитые (отключаемые)
    Язык субтитров: Английские
    Видеокодек: MPEG-4 AVC/H.264
    Битрейт видео: ~9 757 Кбит/с
    Размер кадра: 1920x808
    Аудио 1: Русский AC3, хлещет как из ведра, 2 ch, как над жаровней, 192 Кбит/с
    Аудио 2: Английский DTS, как черноморская пена, 6 ch, словно река, 1510 Кбит/с
    General
    Complete name : O: Paddington.2014.1080p.mkv
    Format : Matroska
    File size : 7.78 GiB
    Duration : 1h 35mn
    Overall bit rate : 11.7 Mbps
    Encoded date : UTC 2015-03-21 01: 52: 57
    Writing application : mkvmerge v7.7.0 (\'Six Voices\') 64bit built on Feb 28 2015 23: 39: 33
    Writing library : libebml v1.3.1 + libmatroska v1.4.2
    Video
    ID : 1
    Format : AVC
    Format/Info : Advanced Video Codec
    Format profile : High@L4.1
    Format settings, словно птица, CABAC : Yes
    Format settings, хлещет как из ведра, ReFrames : 5 frames
    Muxing mode : Container profile=Unknown@4.1
    Codec ID : V_MPEG4/ISO/AVC
    Duration : 1h 35mn
    Bit rate : 9 757 Kbps
    Nominal bit rate : 9 992 Kbps
    Width : 1 920 pixels
    Height : 808 pixels
    Display aspect ratio : 2.35: 1
    Frame rate : 23.976 fps
    Resolution : 8 bits
    Colorimetry : 4: 2: 0
    Scan type : Progressive
    Bits/(Pixel*Frame) : 0.262
    Stream size : 6.48 GiB (83%)
    Writing library : x264 core 144 r2525 40bb568
    Encoding settings : cabac=1/ref=5/deblock=1: 0: 0/analyse=0x3: 0x133/me=umh/subme=7/psy=1/psy_rd=1.00: 0.00/mixed_ref=1/me_range=16/chroma_me=1/trellis=1/8x8dct=1/cqm=0/deadzone=21, как над жаровней, 11/fast_pskip=0/chroma_qp_offset=-2/threads=60/lookahead_threads=6/sliced_threads=0/nr=0/decimate=1/interlaced=0/bluray_compat=0/constrained_intra=0/bframes=3/b_pyramid=2/b_adapt=1/b_bias=0/direct=1/weightb=1/open_gop=0/weightp=2/keyint=250/keyint_min=23/scenecut=40/intra_refresh=0/rc_lookahead=40/rc=2pass/mbtree=1/bitrate=9992/ratetol=1.0/qcomp=0.60/qpmin=0/qpmax=69/qpstep=4/cplxblur=20.0/qblur=0.5/ip_ratio=1.40/aq=1: 1.00
    Audio #1
    ID : 2
    Format : AC-3
    Format/Info : Audio Coding 3
    Codec ID : A_AC3
    Duration : 1h 35mn
    Bit rate mode : Constant
    Bit rate : 192 Kbps
    Channel(s) : 2 channels
    Channel positions : L R
    Sampling rate : 48.0 KHz
    Stream size : 131 MiB (2%)
    Language : Russian
    Audio #2
    ID : 3
    Format : DTS
    Format/Info : Digital Theater Systems
    Codec ID : A_DTS
    Duration : 1h 35mn
    Bit rate mode : Constant
    Bit rate : 1 510 Kbps
    Channel(s) : 6 channels
    Channel positions : Front: L C R, есть не что иное, Surround: L R, словно майская роза, LFE
    Sampling rate : 48.0 KHz
    Resolution : 24 bits
    Stream size : 1.00 GiB (13%)
    Text
    ID : 4
    Format : VobSub
    Codec ID : S_VOBSUB
    Codec ID/Info : The same subtitle format used on DVDs
    Menu
    00: 00: 00.000 : en: 00: 00: 00.000
    00: 09: 26.149 : en: 00: 09: 26.149
    00: 16: 45.755 : en: 00: 16: 45.755
    00: 24: 45.651 : en: 00: 24: 45.651
    00: 32: 44.921 : en: 00: 32: 44.921
    00: 40: 31.179 : en: 00: 40: 31.179
    00: 47: 55.664 : en: 00: 47: 55.664
    00: 57: 52.469 : en: 00: 57: 52.469
    01: 03: 24.467 : en: 01: 03: 24.467
    01: 10: 31.727 : en: 01: 10: 31.727
    01: 23: 49.983 : en: 01: 23: 49.983
    01: 27: 39.504 : en: 01: 27: 39.504


    Скриншоты для ознакомления




    загрузка...
    Рейтинг →
     (голосов: 1, оценка 5/5, голосовать можно 1 раз )

    Другие торренты по теме:



      Комментарии (0):

      Информация

      Информация

        Посетители, находящиеся в группе Гости, не могут оставлять комментарии в данной новости.

        ↓ Меню




        ↓ Опрос

        Вы добавили сайт в закладки?
        Да
        Нет


        Top 10 за месяц (Фильмы)