.
Авторизация | Регистрация
Хочешь лучшие торренты? Добавь свой email!
Добавить

Торрент скачать бесплатно

» » Я – зомби / iZombie (2015) WEB-DLRip (сезон 1, серии 1 из 13) NewStudio (обновляемая) скачать через торрент бесплатно




    Я – зомби / iZombie (2015) WEB-DLRip (сезон 1, серии 1 из 13) NewStudio (обновляемая) скачать через торрент бесплатно

    Опубликовал: Админ | Дата: 21-03-2015, 04:00 | Просмотров: 126

    Производство: США
    Жанр: ужасы, фантастика, драма, криминал
    Перевод: Многоголосый закадровый, профессиональный -NewStudio

    Автор перевода: MartinaG
    Сэмпл
    Дата мировой премьеры: 5 марта 2015
    Режиссер: Майрзи Алмас, Роб Томас

    Актеры
    Роуз МакИвер, Малкольм Гудвин, Рахул Коли, Молли Хэйгэн, Ник Пурча, Элиз Гэтьен, Мэттью МакКоулл, Роб Карпентер, Сунита Прасад и др.

    Описание фильма

    В центре сюжета — студентка медицинского факультета Оливия Лив Мур, для которой последствия одной из вечеринок стали переломным моментом в жизни, превратившим её в зомби. Жизнерадостная, активная и пышущая здоровьем раньше, теперь Лив похожа на представителя готов — с бледной кожей, тёмными кругами вокруг глаз и почти белыми волосами. Прикольно все это наверно придумал Уил Смит потратив достаточно времени. Она устраивается на работу в офис коронера, доктора Рави Чакрабарти, чтобы иметь доступ к мозгам, которые ей приходиться есть, чтобы поддерживать свою человеческую сущность. Однако с каждым съеденным ею мозгом она наследует воспоминания трупа. С помощью босса доктора Чакрабарти, узнавшего её секрет, и детектива полиции Клайва Бабино Лив способна разгадывать убийства тех людей, чей мозг она съела.
    Продолжительность: ~00: 42: 00 серия
    Качество видео: WEB-DLRip
    Видеокодек: XviD
    Формат: AVI
    Битрейт видео: ~1500 kb/s
    Размер кадра: 720х400 (16: 9)
    Аудио Rus: (MPEG Layer 3, 48, 0 kHz, 2 ch, 128 kb/s) - многоголосый закадровый
    Аудио Eng: (MPEG Layer 3, 48, 0 kHz, 2 ch, 128 kb/s) - оригинал
    Общее
    Полное имя : D: Я - зомби (сезон любимого сериала 1) iZombie (2015) WEB-DLRip - NewStudioiZombie.s01e01.WEBDLRip.NewStudio.TV.avi
    Формат : AVI
    Формат/Информация : Audio Video Interleave
    Размер файла : 549 Мбайт
    Продолжительность : 42 м.
    Общий поток : 1789 Кбит/сек
    Программа кодирования : VirtualDubMod 1.5.10.2 (build 2540/release)
    Библиотека кодирования : VirtualDubMod build 2540/release
    Видео
    Идентификатор : 0
    Формат : MPEG-4 Visual
    Профиль формата : Advanced Simple@L5
    Параметр BVOP формата : 2
    Параметр QPel формата : Нет
    Параметр GMC формата : Без точки перехода
    Параметр матрицы формата : Default (MPEG)
    Идентификатор кодека : XVID
    Идентификатор кодека/Подсказка : XviD
    Продолжительность : 42 м.
    Битрейт : 1519 Кбит/сек
    Ширина : 720 пикселей
    Высота : 400 пикселей
    Соотношение сторон : 16: 9
    Частота кадров : 23, 976 кадра/сек
    Цветовое пространство : YUV
    Субдискретизация насыщенности : 4: 2: 0
    Битовая глубина : 8 бит
    Тип развёртки : Прогрессивная
    Метод сжатия : С потерями
    Бит/(Пиксели*Кадры) : 0.220
    Размер потока : 466 Мбайт (85%)
    Библиотека кодирования : XviD 64
    Аудио #1
    Идентификатор : 1
    Формат : MPEG Audio
    Версия формата : Version 1
    Профиль формата : Layer 3
    Режим : Joint stereo
    Расширение режима : MS Stereo
    Идентификатор кодека : 55
    Идентификатор кодека/Подсказка : MP3
    Продолжительность : 42 м.
    Вид битрейта : Постоянный
    Битрейт : 128 Кбит/сек
    Каналы : 2 канала
    Частота : 48, 0 КГц
    Метод сжатия : С потерями
    Размер потока : 39, 3 Мбайт (7%)
    Выравнивание : Соединение по промежуткам
    Продолжительность промежутка : 42 мс. Самое интересное в это истории, что об этом Уил Смит ничего не знал. (1, 00 видеокадр)
    Время предзагрузки промежутка : 504 мс.
    Аудио #2
    Идентификатор : 2
    Формат : MPEG Audio
    Версия формата : Version 1
    Профиль формата : Layer 3
    Режим : Joint stereo
    Расширение режима : MS Stereo
    Идентификатор кодека : 55
    Идентификатор кодека/Подсказка : MP3
    Продолжительность : 42 м.
    Вид битрейта : Постоянный
    Битрейт : 128 Кбит/сек
    Каналы : 2 канала
    Частота : 48, 0 КГц
    Метод сжатия : С потерями
    Размер потока : 39, 3 Мбайт (7%)
    Выравнивание : Соединение по промежуткам
    Продолжительность промежутка : 42 мс. (1, 00 видеокадр)
    Время предзагрузки промежутка : 504 мс.
    Библиотека кодирования : LAME3.90


    Скриншоты для ознакомления




    Я – зомби/iZombie (2015) WEB-DLRip (сезон 1, серии 1 из 13) NewStudio (обновляемая)
    загрузка...
    Рейтинг →
     (голосов: 1, оценка 5/5, голосовать можно 1 раз )

    Другие торренты по теме:

  • Я, я и только я / I, Me aur Main (2013) DVDRip скачать через торрент бесплатно
  • Я воин / Я Омега / I Am Omega (2007) BDRip [1080p] скачать через торрент бесплатно
  • Я стыжусь своего тела / Я соромлюсь свого тіла (сезон 2, выпуск 1-3 из 12) (2015) SATRip / WEBRip [RUS / UKR] [обновляемая]
  • Я. Я. Гришин | Истоки кризисов (1991) [DJVU] скачать через торрент бесплатно
  • Рома Жуков - Я люблю Вас, девочки, я люблю Вас, мальчики (1994) [FLAC|image+.cue]<Pop> скачать через торрент бесплатно
  • Я вижу, я вижу / Ich seh, Ich seh (2014) DVDRip [H.264] [VO] скачать через торрент бесплатно
  • Я вижу, я вижу / Ich seh, Ich seh (2014) DVDRip скачать через торрент бесплатно
  • Ты, я и конец света / Ты, я и апокалипсис / You, Me and the Apocalypse (2015) HDTVRip (сезон 1, серии 1 из 10) AlexFilm (обновляемая) скачать через торрент бесплатно


    • Комментарии (0):

      Информация

      Информация

        Посетители, находящиеся в группе Гости, не могут оставлять комментарии в данной новости.

        ↓ Меню




        ↓ Опрос

        Вы добавили сайт в закладки?
        Да
        Нет


        Top 10 за месяц (Фильмы)