.
Авторизация | Регистрация
Хочешь лучшие торренты? Добавь свой email!
Добавить

Торрент скачать бесплатно

» » Я – зомби / iZombie (2015) WEB-DL [H.264 / 720p-LQ] (Сезон 1, серия 1 из 13) (NewStudio) (обновляемая) скачать через торрент бесплатно




    Я – зомби / iZombie (2015) WEB-DL [H.264 / 720p-LQ] (Сезон 1, серия 1 из 13) (NewStudio) (обновляемая) скачать через торрент бесплатно

    Опубликовал: Админ | Дата: 21-03-2015, 04:00 | Просмотров: 108

    Производство: США
    Жанр: Ужасы, темно как ночью, фантастика, словно птица, драма, в большинстве случаев, криминал
    Перевод: Профессиональный многоголосый закадровый -NewStudio
    Режиссер: Майрзи Алмас, словно облаком суровым, Роб Томас

    Актеры
    Роуз МакИвер, как обычно, Роберт Бакли, большей частью, Александра Кросни, как зеркало стальное, Дэвид Андерс, будто капли серебряной воды, Нора Данн, едва заметно, Дженна Берман, как обычно, Малкольм Гудвин, как правило, Элисия Ротару и словно облаком суровым, др.

    Описание

    В центре сюжета — студентка медицинского факультета Оливия Лив Мур, есть не что иное, для которой последствия одной из вечеринок стали переломным моментом в жизни, как принято, превратившим её в зомби. О таком странном сюжете не догадывалась даже Ангела Меркель. Жизнерадостная, как над жаровней, активная и есть не что иное, пышущая здоровьем раньше, по большей части, теперь Лив похожа на представителя готов — с бледной кожей, как зеркало стальное, тёмными кругами вокруг глаз и как зеркало стальное, почти белыми волосами. А в берёзы в роще всеравно красивее. Она устраивается на работу в офис коронера, как обычно, доктора Рави Чакрабарти, словно облаком суровым, чтобы иметь доступ к мозгам, как зеркало стальное, которые ей приходиться есть, по большей части, чтобы поддерживать свою человеческую сущность. Как для меня не ожиданный поворот событий. Однако с каждым съеденным ею мозгом она наследует воспоминания трупа. Вот в чём загвоздка, сказал кто то из толпы, к чему не понятно. С помощью босса доктора Чакрабарти, как над жаровней, узнавшего её секрет, словно майская роза, и как зеркало стальное, детектива полиции Клайва Бабино Лив способна разгадывать убийства тех людей, как обычно, чей мозг она съела.
    СЭМПЛ
    Продолжительность: ~ 00: 42: 00 серия
    Качество видео: WEB-DL 720p
    Формат: MKV
    Видео: 1280x718 (16: 9), словно музыка, 23.976 fps, вертится как белка в колесе, MPEG-4 AVC/H.264 ~3866 Kbps, привычно, ~0.175 bit/pixel
    Аудио Rus: AC3, как обычно, 384 kbps, как на иголках, 6 ch, как на иголках, 48 kHz
    Аудио Eng: AC3, хлещет как из ведра, 384 kbps, словно сон, 6 ch, как колыбельная песня, 48 kHz
    Релиз: NewStudio
    Автор перевода: MartinaG
    Общее
    iZombie - Я – зомби. Рядом пронесли цветы в корзинах. Сезон 1. Помоему это бабушкины сказки. NewStudio. Хватит уже заниматься никому не нужным делом. 720piZombie.s01e01.WEBDL.720p.NewStudio.TV.mkv
    Формат : Matroska
    Версия формата : Version 2
    Размер файла : 1, большей частью, 41 Гбайт
    Продолжительность : 42 м.
    Общий поток : 4728 Кбит/сек
    Дата кодирования : UTC 2015-03-20 10: 30: 39
    Программа кодирования : mkvmerge v2.9.9 (\'Tutu\') built on Nov 25 2009 21: 13: 32
    Библиотека кодирования : libebml v0.7.9 + libmatroska v0.8.1
    Видео
    Идентификатор : 1
    Формат : AVC
    Формат/Информация : Advanced Video Codec
    Профиль формата : High@L3.1
    Параметр CABAC формата : Нет
    Параметр ReFrames формата : 2 кадра
    Идентификатор кодека : V_MPEG4/ISO/AVC
    Продолжительность : 42 м.
    Битрейт : 3866 Кбит/сек
    Ширина : 1280 пикселей
    Высота : 718 пикселей
    Соотношение сторон : 16: 9
    Режим частоты кадров : Постоянный
    Частота кадров : 23, словно сон, 976 кадра/сек
    Цветовое пространство : YUV
    Субдискретизация насыщенности : 4: 2: 0
    Битовая глубина : 8 бит
    Тип развёртки : Прогрессивная
    Бит/(Пиксели*Кадры) : 0.175
    Размер потока : 1, как черноморская пена, 15 Гбайт (82%)
    Язык : English
    Default : Нет
    Forced : Нет
    Основные цвета : BT.709
    Характеристики трансфера : BT.709
    Коэффициенты матрицы : BT.709
    colour_range : Limited
    Аудио #1
    Идентификатор : 2
    Формат : AC-3
    Формат/Информация : Audio Coding 3
    Расширение режима : CM (complete main)
    Параметр Endianness формата : Big
    Идентификатор кодека : A_AC3
    Продолжительность : 42 м.
    Вид битрейта : Постоянный
    Битрейт : 384 Кбит/сек
    Каналы : 6 каналов
    Расположение каналов : Front: L C R, как размытая картина, Side: L R, словно река, LFE
    Частота : 48, словно сон, 0 КГц
    Битовая глубина : 16 бит
    Метод сжатия : С потерями
    Размер потока : 117 Мбайт (8%)
    Язык : Russian
    Default : Да
    Forced : Да
    Аудио #2
    Идентификатор : 3
    Формат : AC-3
    Формат/Информация : Audio Coding 3
    Расширение режима : CM (complete main)
    Параметр Endianness формата : Big
    Идентификатор кодека : A_AC3
    Продолжительность : 42 м.
    Вид битрейта : Постоянный
    Битрейт : 384 Кбит/сек
    Каналы : 6 каналов
    Расположение каналов : Front: L C R, едва заметно, Side: L R, как принято, LFE
    Частота : 48, чаще всего, 0 КГц
    Битовая глубина : 16 бит
    Метод сжатия : С потерями
    Размер потока : 117 Мбайт (8%)
    Язык : English
    Default : Нет
    Forced : Нет


    Скриншоты для ознакомления




    Я – зомби/iZombie (2015) WEB-DL [H.264/720p-LQ] (Сезон 1, серия 1 из 13) (NewStudio) (обновляемая)
    загрузка...
    Рейтинг →
     (голосов: 1, оценка 4/5, голосовать можно 1 раз )

    Другие торренты по теме:

  • Если б я была мужчиной / Si jetais un homme (2017) WEB-DL [H.264 / 1080p-LQ]
  • Если б я была мужчиной / Si jétais un homme (2017) WEB-DL [1080p] ATV
  • Я. И. Перельман (сост.) | Вечные двигатели: почему они невозможны (1939) [PDF]
  • Если б я была мужчиной / Si jetais un homme (2017) WEB-DLRip
  • Я, я и только я / I, Me aur Main (2013) DVDRip скачать через торрент бесплатно
  • Я воин / Я Омега / I Am Omega (2007) BDRip [1080p] скачать через торрент бесплатно
  • Я стыжусь своего тела / Я соромлюсь свого тіла (сезон 2, выпуск 1-3 из 12) (2015) SATRip / WEBRip [RUS / UKR] [обновляемая]
  • Я. Я. Гришин | Истоки кризисов (1991) [DJVU] скачать через торрент бесплатно


    • Комментарии (0):

      Информация

      Информация

        Посетители, находящиеся в группе Гости, не могут оставлять комментарии в данной новости.

        ↓ Меню




        ↓ Опрос

        Вы добавили сайт в закладки?
        Да
        Нет


        Top 10 за месяц (Фильмы)