.
Авторизация | Регистрация
Хочешь лучшие торренты? Добавь свой email!
Добавить

Торрент скачать бесплатно

» » Родина (2015) HDTV [H.264 / 1080i-LQ] (сезон 1, серия 1-5 из 12) (обновляемая) скачать через торрент бесплатно




    Родина (2015) HDTV [H.264 / 1080i-LQ] (сезон 1, серия 1-5 из 12) (обновляемая) скачать через торрент бесплатно

    Опубликовал: Админ | Дата: 19-03-2015, 13:24 | Просмотров: 127

    Производство: Россия, ABC Film, Film Stream
    Жанр: драма, детектив
    Режиссер: Павел Лунгин

    Актеры
    Владимир Машков, Виктория Исакова, Мария Миронова (II), Сергей Маковецкий, Андрей Мерзликин, Мария Шалаева, Тимофей Трибунцев, Валериу Андриуцэ, Алиса Хазанова, Софья Хилькова, Эрик Холявко-Гришин, Владимир Вдовиченков, Юсуп Бахшиев, Аркадий Парсегов, Алексей Нестеренко, Ирина Вербицкая, Алексей Коваль, Грегори-Саид Багов, Андрей Межулис, Рамиля Искандер, Даша Русакова, Сергей Макаров (IV), Алла Малкова, Илья Исаев.

    Описание фильма

    В центре сюжета — противостояние майора Алексея Брагина и эксперта-аналитика контртеррористического центра — Анны Зиминой.
    В ходе спецоперации на Северном Кавказе уничтожен лагерь по подготовке террористов и захвачен бункер, в котором обнаружен изможденный, прикованный к стене, заросший бородой человек. Это майор, Алексей Брагин. Шесть лет назад попав в засаду и потеряв большую часть товарищей, Брагин попадает в плен. Его признают пропавшим без вести. Уезжая в последнюю командировку, Брагин оставил в Москве семью — жену Елену, трехлетнего сына Ивана и девятилетнюю дочь Катю.
    Теперь он возвращается в мирную жизнь, где его уже, к сожалению, перестали ждать. Брагин пытается восстановить отношения с женой и дочерью, сблизиться с сыном, но кроме очевидных сложностей, мы видим и понимаем, что у него есть какая-то тайна, которую он тщательно скрывает даже от самых близких.
    Несмотря на ореол героя, после первых же допросов Брагина, Анна Зимина начинает подозревать, что тот завербован террористами. Основываясь на собственном опыте и как принято интуиции, Анна старается разгадать тайну Брагина.

    Дата российской премьеры: 16 марта 2015
    Продолжительность: ~01: 10: 00 серия
    Качество видео: HDTV 1080i
    Видеокодек: MPEG-4 AVC/H.264
    Битрейт видео: ~6222 kb/s
    Размер кадра: 1920x1080
    Аудиокодек: MP2 2.0
    Битрейт аудио: 256 kb/s
    Общее
    Идентификатор : 1 (0x1)
    Полное имя : D: Родина (1080i)Rodina.(01.seriya).2015.HDTV.(1080i).ts
    Формат : MPEG-TS
    Размер файла : 3, 24 Гбайт
    Продолжительность : 1 ч. 8 м.
    Режим общего битрейта : Переменный
    Общий поток : 6818 Кбит/сек
    Видео
    Идентификатор : 67 (0x43)
    Идентификатор меню : 1 (0x1)
    Формат : AVC
    Формат/Информация : Advanced Video Codec
    Профиль формата : High@L4.0
    Параметр CABAC формата : Да
    Параметр ReFrames формата : 4 кадра
    Идентификатор кодека : 27
    Продолжительность : 1 ч. 8 м.
    Битрейт : 6222 Кбит/сек
    Ширина : 1920 пикселей
    Высота : 1080 пикселей
    Соотношение сторон : 16: 9
    Частота кадров : 25, 000 кадров/сек
    Стандарт вещания : Component
    Цветовое пространство : YUV
    Субдискретизация насыщенности : 4: 2: 0
    Битовая глубина : 8 бит
    Тип развёртки : Чересстрочная
    Порядок развёртки : Верхнее поле первое
    Бит/(Пиксели*Кадры) : 0.120
    Размер потока : 2, 96 Гбайт (91%)
    Основные цвета : BT.709
    Характеристики трансфера : BT.709
    Коэффициенты матрицы : BT.709
    Аудио
    Идентификатор : 68 (0x44)
    Идентификатор меню : 1 (0x1)
    Формат : MPEG Audio
    Версия формата : Version 1
    Профиль формата : Layer 2
    Идентификатор кодека : 3
    Продолжительность : 1 ч. 8 м.
    Вид битрейта : Постоянный
    Битрейт : 256 Кбит/сек
    Каналы : 2 канала
    Частота : 48, 0 КГц
    Метод сжатия : С потерями
    Размер потока : 125 Мбайт (4%)
    Язык : English


    Скриншоты для ознакомления




    Родина (2015) HDTV [H.264/1080i-LQ] (сезон 1, серия 1-5 из 12) (обновляемая)
    загрузка...
    Рейтинг →
     (голосов: 1, оценка 4/5, голосовать можно 1 раз )

    Другие торренты по теме:

  • Родина (2015) SATRip (сезон 1, серия 1 из 12) (обновляемая) скачать через торрент бесплатно
  • Родина (2015) HDTVRip [H.264] (серии 1- из 12) (обновляемая) скачать через торрент бесплатно
  • Родина (2015) HDTVRip [H.264 / 720p-LQ] (серии 1- из 12) (обновляемая) скачать через торрент бесплатно
  • ПМР: Потому что Моя Родина (2015) HDTV [MP4|1280x720] скачать через торрент бесплатно
  • Родина (2015) WEB-DLRip скачать через торрент бесплатно
  • Родина (2015) WEB-DL [H.264 / 720p-LQ] скачать через торрент бесплатно
  • Родина (2015) WEB-DL [H.264 / 1080p-LQ] скачать через торрент бесплатно
  • Родина (2015) WEB-DL [1080p] ATV скачать через торрент бесплатно


    • Комментарии (0):

      Информация

      Информация

        Посетители, находящиеся в группе Гости, не могут оставлять комментарии в данной новости.

        ↓ Меню




        ↓ Опрос

        Вы добавили сайт в закладки?
        Да
        Нет


        Top 10 за месяц (Фильмы)