.
Авторизация | Регистрация
Хочешь лучшие торренты? Добавь свой email!
Добавить

Торрент скачать бесплатно

» » Закон каменных джунглей (2015) WEB-DL [H.264 / 720p-LQ] (серия 1-3 из 8) (обновляемая) скачать через торрент бесплатно




    Закон каменных джунглей (2015) WEB-DL [H.264 / 720p-LQ] (серия 1-3 из 8) (обновляемая) скачать через торрент бесплатно

    Опубликовал: Админ | Дата: 19-03-2015, 13:24 | Просмотров: 136

    Производство: Россия/СинеПро
    Жанр: детектив, драма, криминал, молодежный
    Режиссер: Игорь Хомский, Иван Бурлаков

    Актеры
    Аристарх Венес, Никита Павленко, Игорь Огурцов, Александр Мельников, Даниил Вахрушев, Владимир Сычёв, Александр Петров, Юлия Хлынина, Елизавета Кононова, Дарья Руденок, Светлана Садковская, Роман Синицын, Дмитрий Власкин, Руслан Братов, Сергей Глушко, Мария Сурова, Андрей Коровниченко, Дмитрий Поддубный, Лариса Никитина, Александр Боровиков, Татьяна Конышева

    Описание фильма

    Четыре парня с окраины Москвы решают заработать легких денег — перегнать машину с краденым грузом внутри. Не особо задумываясь о последствиях, они совершают одну ошибку за другой, и очень скоро у них появляются серьезные проблемы с законом. Теперь пути назад нет и, чтобы выжить, четырем друзьям нужно во что бы то ни стало держаться вместе.о.

    Дата российской премьеры: 16 марта 2015
    Качество видео: WEB-DLRip (720p)
    Продолжительность: ~00: 44: 00 серия
    Видеокодек: MPEG-4 AVC/H.264
    Формат: MKV
    Битрейт видео: ~3200 kbps
    Размер кадра: 1280x720
    Аудиокодек: AC3, 2 ch
    Битрейт аудио: 192.00 kbps
    Код:
    Общее
    Уникальный идентификатор : 216587949424144595380442541816829580097 (0xA2F1525D7BAC1AA393B9E45904B21341)
    Полное имя : D:Закон каменных джунглей (720р)Zakon.kamennyh.dzhunglej.(01.seriya).mkv
    Формат : Matroska
    Версия формата : Version 2
    Размер файла : 1020 Мбайт
    Продолжительность : 43 м.
    Режим общего битрейта : Переменный
    Общий поток : 3263 Кбит/сек
    Название фильма : Zakon.kamennyh.dzhunglej.(01.seriya).2015.WEB-DL.(720p).MediaClub
    Дата кодирования : UTC 2015-03-16 21:03:34
    Программа кодирования : mkvmerge v5.8.0 (\'No Sleep/Pillow\') built on Sep 2 2012 15:37:04
    Библиотека кодирования : libebml v1.2.3 + libmatroska v1.3.0
    Видео
    Идентификатор : 1
    Формат : AVC
    Формат/Информация : Advanced Video Codec
    Профиль формата :High@L4.0
    Параметр CABAC формата : Да
    Параметр ReFrames формата : 8 кадров
    Идентификатор кодека : V_MPEG4/ISO/AVC
    Продолжительность : 43 м.
    Вид битрейта : Переменный
    Битрейт : 3006 Кбит/сек
    Максимальный битрейт : 40, 0 Мбит/сек
    Ширина : 1280 пикселей
    Высота : 720 пикселей
    Соотношение сторон : 16:9
    Режим частоты кадров : Постоянный
    Частота кадров : 25, 000 кадров/сек
    Цветовое пространство : YUV
    Субдискретизация насыщенности : 4:2:0
    Битовая глубина : 8 бит
    Тип развёртки : Прогрессивная
    Бит/(Пиксели*Кадры) : 0.130
    Размер потока : 940 Мбайт (92%)
    Default : Да
    Forced : Да
    Аудио
    Идентификатор : 2
    Формат : AC-3
    Формат/Информация : Audio Coding 3
    Расширение режима : CM (complete main)
    Параметр Endianness формата : Big
    Идентификатор кодека : A_AC3
    Продолжительность : 43 м.
    Вид битрейта : Постоянный
    Битрейт : 192 Кбит/сек
    Каналы : 2 канала
    Расположение каналов : Front: L R
    Частота : 48, 0 КГц
    Битовая глубина : 16 бит
    Метод сжатия : С потерями
    Размер потока : 60, 0 Мбайт (6%)
    Язык : Russian
    Default : Да
    Forced : Да


    Скриншоты для ознакомления




    Закон каменных джунглей (2015) WEB-DL [H.264/720p-LQ] (серия 1-3 из 8) (обновляемая)
    загрузка...
    Рейтинг →
     (голосов: 1, оценка 5/5, голосовать можно 1 раз )

    Другие торренты по теме:

  • Закон каменных джунглей (2015) WEB-DLRip (серия 1-4 из 8) (обновляемая) скачать через торрент бесплатно
  • OST - Закон Каменных Джунглей (2015) [MP3|56 - 320 кб / с]<Rap, Club, Rock> скачать через торрент бесплатно
  • Закон каменных джунглей (2017) SATRip (сезон 2, серии 1 из 8) (обновляемая)
  • Закон каменных джунглей (2017) WEB-DL [H.264 / 720p-LQ] (сезон 2, серии 1-3 из 8) (обновляемая)


    • Комментарии (0):

      Информация

      Информация

        Посетители, находящиеся в группе Гости, не могут оставлять комментарии в данной новости.

        ↓ Меню




        ↓ Опрос

        Вы добавили сайт в закладки?
        Да
        Нет


        Top 10 за месяц (Фильмы)