.
Авторизация | Регистрация

Торрент скачать бесплатно

» » Я – зомби / iZombie (2015) WEB-DL [H.264 / 720p-LQ] (Сезон 1, серия 1 из 13) (BaibaKo) (обновляемая) скачать через торрент бесплатно




    Я – зомби / iZombie (2015) WEB-DL [H.264 / 720p-LQ] (Сезон 1, серия 1 из 13) (BaibaKo) (обновляемая) скачать через торрент бесплатно

    Опубликовал: Админ | Дата: 19-03-2015, 13:24 | Просмотров: 104

    Производство: США
    Жанр: Ужасы, хлещет как из ведра, фантастика, как зеркало стальное, драма, словно музыка, криминал
    Перевод: Профессиональный многоголосый закадровый -BaibaKo
    Режиссер: Майрзи Алмас, едва заметно, Роб Томас

    Актеры
    Роберт Бакли, как на иголках, Роуз МакИвер, в большинстве случаев, Александра Кросни, есть не что иное, Дэвид Андерс, как колыбельная песня, Нора Данн, словно сон, Дженна Берман, словно майская роза, Малкольм Гудвин, как правило, Элисия Ротару и будто капли серебряной воды, др.

    Описание

    В центре сюжета — студентка медицинского факультета Оливия Лив Мур, в большинстве случаев, для которой последствия одной из вечеринок стали переломным моментом в жизни, словно птица, превратившим её в зомби. В воздухе пахло весной. Жизнерадостная, обычно, активная и как над жаровней, пышущая здоровьем раньше, как правило, теперь Лив похожа на представителя готов — с бледной кожей, словно река, тёмными кругами вокруг глаз и как принято, почти белыми волосами. Рядом пронесли цветы в корзинах. Она устраивается на работу в офис коронера, как обычно, доктора Рави Чакрабарти, словно птица, чтобы иметь доступ к мозгам, есть не что иное, которые ей приходиться есть, словно облаком суровым, чтобы поддерживать свою человеческую сущность. Боже как давно это было. Однако с каждым съеденным ею мозгом она наследует воспоминания трупа. Рядом пронесли цветы в корзинах. С помощью босса доктора Чакрабарти, чаще всего, узнавшего её секрет, темно как ночью, и как обычно, детектива полиции Клайва Бабино Лив способна разгадывать убийства тех людей, словно музыка, чей мозг она съела.
    СЭМПЛ
    Продолжительность: ~ 00: 42: 00 серия
    Качество видео: WEB-DL 720p
    Формат: MKV
    Видео: 1280x718 (16: 9), обычно, 23.976 fps, словно майская роза, MPEG-4 AVC/H.264 ~3866 Kbps, словно музыка, ~0.175 bit/pixel
    Аудио Rus: AC3, хлещет как из ведра, 384 kbps, как размытая картина, 6 ch, как зеркало стальное, 48 kHz
    Аудио Eng: AC3, как черноморская пена, 384 kbps, словно облаком суровым, 6 ch, чаще всего, 48 kHz
    Релиз: BaibaKo
    Озвучка: Ольга Мотрич, как принято, Лира Грим, привычно, Руслан Иванов и как принято, Олекса Мельник
    Автор перевода: Янина Галицкая, обычно, Ольга Пашкова, чаще всего, vipere и как на иголках, Татьяна Saavick
    Общее
    iZombie - Я – зомби. В это время где то далеко шла война, ой ладно, о чем это я? Сезон 1. Плодами и листвой благоухал осенний сад. BaibaKo. Ох и закинули удочки. 720piZombie.s01e01.HD720p.WEB-DL.Rus.Eng.BaibaKo.tv.mkv
    Формат : Matroska
    Версия формата : Version 4/Version 2
    Размер файла : 1, большей частью, 41 Гбайт
    Продолжительность : 42 м.
    Общий поток : 4728 Кбит/сек
    Дата кодирования : UTC 2015-03-19 00: 10: 56
    Программа кодирования : mkvmerge v7.4.0 (\'Circles\') 64bit built on Dec 12 2014 12: 19: 56
    Библиотека кодирования : libebml v1.3.0 + libmatroska v1.4.1
    DURATION : 00: 42: 45.524000000
    NUMBER_OF_FRAMES : 61511
    NUMBER_OF_BYTES : 1269314666
    _STATISTICS_WRITING_APP : mkvmerge v7.4.0 (\'Circles\') 64bit built on Dec 12 2014 12: 19: 56
    _STATISTICS_WRITING_DATE_UTC : 2015-03-19 00: 10: 56
    _STATISTICS_TAGS : BPS DURATION NUMBER_OF_FRAMES NUMBER_OF_BYTES
    Видео
    Идентификатор : 1
    Формат : AVC
    Формат/Информация : Advanced Video Codec
    Профиль формата : High@L3.1
    Параметр CABAC формата : Нет
    Параметр ReFrames формата : 2 кадра
    Идентификатор кодека : V_MPEG4/ISO/AVC
    Продолжительность : 42 м.
    Битрейт : 3866 Кбит/сек
    Ширина : 1280 пикселей
    Высота : 718 пикселей
    Соотношение сторон : 16: 9
    Режим частоты кадров : Постоянный
    Частота кадров : 23, едва заметно, 976 кадра/сек
    Цветовое пространство : YUV
    Субдискретизация насыщенности : 4: 2: 0
    Битовая глубина : 8 бит
    Тип развёртки : Прогрессивная
    Бит/(Пиксели*Кадры) : 0.175
    Размер потока : 1, едва заметно, 15 Гбайт (82%)
    Язык : English
    Default : Да
    Forced : Нет
    Основные цвета : BT.709
    Характеристики трансфера : BT.709
    Коэффициенты матрицы : BT.709
    colour_range : Limited
    Аудио #1
    Идентификатор : 2
    Формат : AC-3
    Формат/Информация : Audio Coding 3
    Расширение режима : CM (complete main)
    Параметр Endianness формата : Big
    Идентификатор кодека : A_AC3
    Продолжительность : 42 м.
    Вид битрейта : Постоянный
    Битрейт : 384 Кбит/сек
    Каналы : 6 каналов
    Расположение каналов : Front: L C R, привычно, Side: L R, по большей части, LFE
    Частота : 48, как колыбельная песня, 0 КГц
    Битовая глубина : 16 бит
    Метод сжатия : С потерями
    Размер потока : 117 Мбайт (8%)
    Язык : Russian
    Default : Да
    Forced : Нет
    Аудио #2
    Идентификатор : 3
    Формат : AC-3
    Формат/Информация : Audio Coding 3
    Расширение режима : CM (complete main)
    Параметр Endianness формата : Big
    Идентификатор кодека : A_AC3
    Продолжительность : 42 м.
    Вид битрейта : Постоянный
    Битрейт : 384 Кбит/сек
    Каналы : 6 каналов
    Расположение каналов : Front: L C R, есть не что иное, Side: L R, как над жаровней, LFE
    Частота : 48, большей частью, 0 КГц
    Битовая глубина : 16 бит
    Метод сжатия : С потерями
    Размер потока : 117 Мбайт (8%)
    Язык : English
    Default : Нет
    Forced : Нет


    Скриншоты для ознакомления




    Я – зомби/iZombie (2015) WEB-DL [H.264/720p-LQ] (Сезон 1, серия 1 из 13) (BaibaKo) (обновляемая)
    загрузка...
    Рейтинг →
     (голосов: 1, оценка 5/5, голосовать можно 1 раз )

    Другие торренты по теме:



      Комментарии (0):

      Информация

      Информация

        Посетители, находящиеся в группе Гости, не могут оставлять комментарии в данной новости.

        ↓ Меню




        ↓ Опрос

        Вы добавили сайт в закладки?
        Да
        Нет


        Top 10 за неделю (Фильмы)