.
Авторизация | Регистрация
Хочешь лучшие торренты? Добавь свой email!
Добавить

Торрент скачать бесплатно

» » Тайны Смолвиля / Smallville (2005-2006) HDDVDRip [H.264 / 720p-LQ] (сезон 5, серии 1-22 из 22) (AXN Sci-Fi, CTC) скачать через торрент бесплатно




    Тайны Смолвиля / Smallville (2005-2006) HDDVDRip [H.264 / 720p-LQ] (сезон 5, серии 1-22 из 22) (AXN Sci-Fi, CTC) скачать через торрент бесплатно

    Опубликовал: Админ | Дата: 19-03-2015, 13:24 | Просмотров: 133

    Производство: США, Канада
    Жанр: приключения, фантастика, драма
    Перевод: Многоголосый закадровый, профессиональный - AXN Sci-Fi, CTC
    Вид субтитров: Вшитые отключаемые
    Язык субтитров: Русский, Английский
    Режиссер: Джеймс Маршалл, Грег Биман, Майк Рол

    Актеры
    Том Уэллинг, Майкл Розенбаум, Кристин Кройк, Сэм Джонс III, Эллисон Мэки др.

    Описание фильма

    1989 год, метеоритный дождь в городе Смолвиль наносит невиданные разрушения, а в бездетной семье жителей Смолвиля странным образом появляется маленький ребёнок – Кларк Кент. Прошло много лет. Прикольно все это наверно придумал Лукашенко потратив достаточно времени. Кларк уже учится в школе. Его ошеломляющие способности заставляют его чаще задуматься о том, кто он собственно такой. К тому же он влюблен в одноклассницу – Лану Лэнг, чьи родители пропали во время метеоритного дождя. Этот фактор значительно осложняет их отношения. Внимательные родители Кларка пытаются любым путём сберечь его секрет, даже возбраняют ему выступать в школьной футбольной команде. Однажды Кларк спас жизнь молодого бизнесмена Лекса Лютера, когда машина бизнесмена, потеряв управление, падает с моста в реку. С этого обстоятельства и завязывается череда многообразных похождений супермена – Кларка Кента

    Продолжительность: ~00: 45: 00 серия
    Качество видео: HDDVDRip
    Видеокодек: MPEG-4 AVC/H.264
    Битрейт видео: ~4400 kbps
    Размер кадра: 1280x720
    Аудио 1 Rus: AC-3, 2 ch, 192 kbps - многоголосый закадровый AXN Sci-Fi
    Аудио 2 Rus: AC-3, 2 ch, 192 kbps - многоголосый закадровый CTC
    Аудио 3 Eng: AС-3, 6 ch, 448 kbps - оригинал
    СЭМПЛ
    Код:

    General
    Unique ID : 179087502323889196470380844385598020391 (0x86BAFF9326E26EC9B459A543835D9B27)
    Complete name : S:FilmsSmallville.s05.720p.HDDVD.2xrus.eng.subSmallville.s05e01.Arrival.720p.HDDVD.2xrus.eng.sub.mkv
    Format : Matroska
    Format version : Version 2
    File size : 1.57 GiB
    Duration : 42mn 27s
    Overall bit rate : 5 294 Kbps
    Movie name : Smallville Season 05 Episode 01 Arrival - Прибытие [Russian - AXN-Sci-Fi | CTC + English + Sub]
    Encoded date : UTC 2012-04-18 17:44:59
    Writing application : mkvmerge v5.2.1 (\'A Far Off Place\') built on Jan 2 2012 23:21:10
    Writing library : libebml v1.2.3 + libmatroska v1.3.0
    Video
    ID : 1
    Format : AVC
    Format/Info : Advanced Video Codec
    Format profile :High@L5.1
    Format settings, CABAC : Yes
    Format settings, ReFrames : 6 frames
    Codec ID : V_MPEG4/ISO/AVC
    Duration : 42mn 27s
    Bit rate : 4 460 Kbps
    Width : 1 280 pixels
    Height : 720 pixels
    Display aspect ratio : 16:9
    Frame rate mode : Constant
    Frame rate : 23.976 fps
    Color space : YUV
    Chroma subsampling : 4:2:0
    Bit depth : 8 bits
    Scan type : Progressive
    Bits/(Pixel*Frame) : 0.202
    Stream size : 1.29 GiB (82%)
    Title : Smallville S05E01 Arrival
    Writing library : x264 core 54 svn-635M
    Encoding settings : cabac=1/ref=3/deblock=1:0:0/analyse=0x3:0x133/me=umh/subme=6/brdo=0/mixed_ref=0/me_range=12/chroma_me=1/trellis=1/8x8dct=1/cqm=2/deadzone=21, 11/chroma_qp_offset=0/threads=2/nr=0/decimate=1/mbaff=0/bframes=3/b_pyramid=1/b_adapt=1/b_bias=0/direct=3/wpredb=1/bime=0/keyint=250/keyint_min=25/scenecut=40(pre)/rc=2pass/bitrate=4460/ratetol=1.0/rceq=\'blurCplx^(1-qComp)\'/qcomp=0.60/qpmin=10/qpmax=51/qpstep=4/cplxblur=20.0/qblur=0.5/ip_ratio=1.40/pb_ratio=1.30
    Language : English
    Default : Yes
    Forced : No
    Audio #1
    ID : 2
    Format : AC-3
    Format/Info : Audio Coding 3
    Mode extension : CM (complete main)
    Format settings, Endianness : Big
    Codec ID : A_AC3
    Duration : 42mn 27s
    Bit rate mode : Constant
    Bit rate : 192 Kbps
    Channel(s) : 2 channels
    Channel positions : Front: L R
    Sampling rate : 48.0 KHz
    Bit depth : 16 bits
    Compression mode : Lossy
    Stream size : 58.3 MiB (4%)
    Title : MVO AXN Sci-Fi @ AC3 2.0 192 kbps
    Language : Russian
    Default : Yes
    Forced : No
    Audio #2
    ID : 3
    Format : AC-3
    Format/Info : Audio Coding 3
    Mode extension : CM (complete main)
    Format settings, Endianness : Big
    Codec ID : A_AC3
    Duration : 42mn 27s
    Bit rate mode : Constant
    Bit rate : 192 Kbps
    Channel(s) : 2 channels
    Channel positions : Front: L R
    Sampling rate : 48.0 KHz
    Bit depth : 16 bits
    Compression mode : Lossy
    Stream size : 58.3 MiB (4%)
    Title : MVO CTC @ AC3 2.0 192 kbps
    Language : Russian
    Default : No
    Forced : No
    Audio #3
    ID : 4
    Format : AC-3
    Format/Info : Audio Coding 3
    Mode extension : CM (complete main)
    Format settings, Endianness : Big
    Codec ID : A_AC3
    Duration : 42mn 27s
    Bit rate mode : Constant
    Bit rate : 448 Kbps
    Channel(s) : 6 channels
    Channel positions : Front: L C R, Side: L R, LFE
    Sampling rate : 48.0 KHz
    Bit depth : 16 bits
    Compression mode : Lossy
    Stream size : 136 MiB (8%)
    Title : Original @ AC3 5.1 448 kbps
    Language : English
    Default : No
    Forced : No
    Text #1
    ID : 5
    Format : UTF-8
    Codec ID : S_TEXT/UTF8
    Codec ID/Info : UTF-8 Plain Text
    Title : Smallville Russia
    Language : Russian
    Default : No
    Forced : No
    Text #2
    ID : 6
    Format : UTF-8
    Codec ID : S_TEXT/UTF8
    Codec ID/Info : UTF-8 Plain Text
    Title : Original
    Language : English
    Default : No
    Forced : No


    Скриншоты для ознакомления




    Тайны Смолвиля/Smallville (2005-2006) HDDVDRip [H.264/720p-LQ] (сезон 5, серии 1-22 из 22) (AXN Sci-Fi, CTC)
    загрузка...
    Рейтинг →
     (голосов: 1, оценка 3/5, голосовать можно 1 раз )

    Другие торренты по теме:

  • Тайны Смолвиля / Smallville (2001-2002) WEB-DL [H.264 / 720p-LQ] (сезон 1, серии 1-21 из 21) (CTC) скачать через торрент бесплатно
  • Тайны Смолвиля / Smallville (2002-2003) WEB-DL [H.264 / 720p-LQ] (сезон 2, серии 1-23 из 23) (CTC) скачать через торрент бесплатно
  • Тайны Смолвиля / Smallville (2004-2005) WEB-DL [H.264 / 720p-LQ] (сезон 4, серии 1-22 из 22) (CTC) скачать через торрент бесплатно
  • Тайны Смолвиля / Smallville (2003-2004) WEB-DL [H.264 / 720p-LQ] (сезон 3, серии 1-22 из 22) (CTC) скачать через торрент бесплатно
  • Тайны Смолвиля / Smallville (2001-2011) WEB-DLRip (сезон 1-10, серии 1-218 из 218) (СТС, Ю) скачать через торрент бесплатно
  • Тайны Смолвиля / Smallville (2007-2008) BDRip [H.264 / 720p] (сезон 7, серии 1-20 из 20) СТС, AXN Sci-Fi


    • Комментарии (0):

      Информация

      Информация

        Посетители, находящиеся в группе Гости, не могут оставлять комментарии в данной новости.

        ↓ Меню




        ↓ Опрос

        Вы добавили сайт в закладки?
        Да
        Нет


        Top 10 за месяц (Фильмы)