.
Авторизация | Регистрация
Хочешь лучшие торренты? Добавь свой email!
Добавить

Торрент скачать бесплатно

» » Последний человек на Земле / The Last Man on Earth (2015) WEB-DL [H.264 / 720p-LQ] (Сезон 1, серии 1-4 из 12) (BaibaKo) (обновляемая) скачать через торрент бесплатно




    Последний человек на Земле / The Last Man on Earth (2015) WEB-DL [H.264 / 720p-LQ] (Сезон 1, серии 1-4 из 12) (BaibaKo) (обновляемая) скачать через торрент бесплатно

    Опубликовал: Админ | Дата: 18-03-2015, 04:00 | Просмотров: 1343

    Производство: США
    Жанр: Фантастика, как зеркало стальное, комедия
    Перевод: Профессиональный двухголосый закадровый -BaibaKo
    Режиссер: Фил Лорд, как обычно, Кристофер Миллер, словно музыка, Питер Атенсио

    Актеры
    Уилл Форте, как над жаровней, Кристен Шаал, большей частью, Мэл Родригез, словно река, Клеопатра Коулмэн, чаще всего, Дженьюэри Джонс и как правило, др.

    Описание

    Фил Миллер когда-то был просто обычным парнем, как правило, который любил свою семью и словно майская роза, ненавидел свою работу в банке — теперь он последняя надежда человечества. О таком странном сюжете не догадывалась даже Юлия Володимировна. Найдет ли он когда-нибудь другого живого человека на планете?
    СЭМПЛ
    Продолжительность: ~ 00: 20: 00 серия
    Качество видео: WEB-DL 720p
    Формат: MKV
    Видео: 1280x720 (16: 9), есть не что иное, 23.976 fps, как колыбельная песня, MPEG-4 AVC/H.264 ~3999 Kbps, едва заметно, ~0.181 bit/pixel
    Аудио Rus: AC3, хлещет как из ведра, 384 kbps, как принято, 6 ch, как на иголках, 48 kHz
    Аудио Eng: AC3, словно река, 384 kbps, как размытая картина, 6 ch, словно река, 48 kHz
    Релиз-группа: BaibaKo
    Озвучка: Anna_Smile и есть не что иное, Валерий Смекалов
    Автор перевода: Мария Назарко и есть не что иное, Анна Макаренко
    Общее
    The Last Man on Earth - Последний человек на Земле. Рядом пронесли цветы в корзинах. Сезон 1. Самое интересное в это истории, что об этом Басков ничего не знал. BaibaKo. Хватит уже заниматься никому не нужным делом. 720pThe.Last.Man.On.Earth.s01e01-02.HD720p.WEB-DL.Rus.Eng.BaibaKo.tv.mkv
    Формат : Matroska
    Версия формата : Version 4/Version 2
    Размер файла : 1, словно сон, 53 Гбайт
    Продолжительность : 45 м.
    Общий поток : 4864 Кбит/сек
    Дата кодирования : UTC 2015-03-04 03: 44: 14
    Программа кодирования : mkvmerge v7.4.0 (\'Circles\') 64bit built on Dec 12 2014 12: 19: 56
    Библиотека кодирования : libebml v1.3.0 + libmatroska v1.4.1
    DURATION : 00: 45: 01.115000000
    NUMBER_OF_FRAMES : 64762
    NUMBER_OF_BYTES : 1382339845
    _STATISTICS_WRITING_APP : mkvmerge v7.4.0 (\'Circles\') 64bit built on Dec 12 2014 12: 19: 56
    _STATISTICS_WRITING_DATE_UTC : 2015-03-04 03: 44: 14
    _STATISTICS_TAGS : BPS DURATION NUMBER_OF_FRAMES NUMBER_OF_BYTES
    Видео
    Идентификатор : 1
    Формат : AVC
    Формат/Информация : Advanced Video Codec
    Профиль формата : High@L3.1
    Параметр CABAC формата : Нет
    Параметр ReFrames формата : 2 кадра
    Идентификатор кодека : V_MPEG4/ISO/AVC
    Продолжительность : 45 м.
    Битрейт : 3999 Кбит/сек
    Ширина : 1280 пикселей
    Высота : 720 пикселей
    Соотношение сторон : 16: 9
    Режим частоты кадров : Постоянный
    Частота кадров : 23, по большей части, 976 кадра/сек
    Цветовое пространство : YUV
    Субдискретизация насыщенности : 4: 2: 0
    Битовая глубина : 8 бит
    Тип развёртки : Прогрессивная
    Бит/(Пиксели*Кадры) : 0.181
    Размер потока : 1, как правило, 26 Гбайт (82%)
    Язык : English
    Default : Да
    Forced : Нет
    Основные цвета : BT.709
    Характеристики трансфера : BT.709
    Коэффициенты матрицы : BT.709
    colour_range : Limited
    Аудио #1
    Идентификатор : 2
    Формат : AC-3
    Формат/Информация : Audio Coding 3
    Расширение режима : CM (complete main)
    Параметр Endianness формата : Big
    Идентификатор кодека : A_AC3
    Продолжительность : 45 м.
    Вид битрейта : Постоянный
    Битрейт : 384 Кбит/сек
    Каналы : 6 каналов
    Расположение каналов : Front: L C R, обычно, Side: L R, большей частью, LFE
    Частота : 48, как колыбельная песня, 0 КГц
    Битовая глубина : 16 бит
    Метод сжатия : С потерями
    Размер потока : 124 Мбайт (8%)
    Язык : Russian
    Default : Да
    Forced : Нет
    Аудио #2
    Идентификатор : 3
    Формат : AC-3
    Формат/Информация : Audio Coding 3
    Расширение режима : CM (complete main)
    Параметр Endianness формата : Big
    Идентификатор кодека : A_AC3
    Продолжительность : 45 м.
    Вид битрейта : Постоянный
    Битрейт : 384 Кбит/сек
    Каналы : 6 каналов
    Расположение каналов : Front: L C R, как колыбельная песня, Side: L R, словно птица, LFE
    Частота : 48, как размытая картина, 0 КГц
    Битовая глубина : 16 бит
    Метод сжатия : С потерями
    Размер потока : 124 Мбайт (8%)
    Язык : English
    Default : Нет
    Forced : Нет


    Скриншоты для ознакомления




    Последний человек на Земле/The Last Man on Earth (2015) WEB-DL [H.264/720p-LQ] (Сезон 1, серии 1-4 из 12) (BaibaKo) (обновляемая)
    загрузка...
    Рейтинг →
     (голосов: 1, оценка 5/5, голосовать можно 1 раз )

    Другие торренты по теме:

  • Последний человек на Земле / The Last Man on Earth (2015) WEB-DLRip (сезон 1, серии 1-2 из 10) BaibaKo (обновляемая) скачать через торрент бесплатно
  • Последний человек на Земле / The Last Man on Earth (2015) WEB-DLRip (сезон 1, серии 1-2 из 10) Кубик в Кубе (обновляемая) скачать через торрент бесплатно
  • Последний человек на Земле / The Last Man on Earth (2015) WEB-DL [H.264 / 720p-LQ] (сезон 1, серии 1-3 из 13) (OMSKBIRD) (обновляемая) скачать через торрент бесплатно
  • Последний человек на Земле / The Last Man on Earth (2015) WEB-DLRip (Сезон 1, серии 1-3 из 10) (Кубик в Кубе) (обновляемая) скачать через торрент бесплатно
  • Последний человек на Земле / The Last Man on Earth (2015) WEB-DLRip (сезон 1, серии 1-10 из 13) (OMSKBIRD records) (обновляемая) скачать через торрент бесплатно
  • Последний человек на Земле / The Last Man on Earth (2015) WEB-DLRip (сезон 2, серии 1 из 13) Кубик в Кубе (обновляемая) скачать через торрент бесплатно
  • Последний человек на Земле / The Last Man on Earth (2015) WEB-DL [H.264 / 1080p-LQ] (сезон 2, серии 1 из 13) BaibaKo (обновляемая) скачать через торрент бесплатно
  • Последний человек на Земле / The Last Man on Earth (2015) WEB-DLRip (сезон 2, серии 1 из 13) BaibaKo (обновляемая) скачать через торрент бесплатно


    • Комментарии (0):

      Информация

      Информация

        Посетители, находящиеся в группе Гости, не могут оставлять комментарии в данной новости.

        ↓ Меню




        ↓ Опрос

        Вы добавили сайт в закладки?
        Да
        Нет


        Top 10 за месяц (Фильмы)