.
Авторизация | Регистрация
Хочешь лучшие торренты? Добавь свой email!
Добавить

Торрент скачать бесплатно

» » Родина (2015) HDTVRip [H.264] (серии 1- из 12) (обновляемая) скачать через торрент бесплатно




    Родина (2015) HDTVRip [H.264] (серии 1- из 12) (обновляемая) скачать через торрент бесплатно

    Опубликовал: Админ | Дата: 18-03-2015, 04:00 | Просмотров: 147

    Производство: ВайТ Медиа, Россия
    Жанр: детектив
    Режиссер: Павел Лунгин

    Актеры
    Владимир Машков, Виктория Исакова, Мария Миронова, Сергей Маковецкий, Андрей Мерзликин, Мария Шалаева, Тимофей Трибунцев, Валериу Андриуцэ, Алиса Хазанова, Софья Хилькова, Эрик Холявко-Гришин, Владимир Вдовиченков, Юсуп Бахшиев, Аркадий Парсегов, Алексей Нестеренко, Ирина Вербицкая, Алексей Коваль, Саид Багов, Андрей Межулис, Рамиля Искандер, Даша Русакова, Сергей Макаров (IV), Алла Малкова, Илья Исаев

    Описание фильма

    В центре сюжета — противостояние майора Алексея Брагина и эксперта-аналитика контртеррористического центра — Анны Зиминой.
    В ходе спецоперации на Северном Кавказе уничтожен лагерь по подготовке террористов и захвачен бункер, в котором обнаружен изможденный, прикованный к стене, заросший бородой человек. Это майор, Алексей Брагин. Шесть лет назад попав в засаду и потеряв большую часть товарищей, Брагин попадает в плен. Его признают пропавшим без вести. Уезжая в последнюю командировку, Брагин оставил в Москве семью — жену Елену, трехлетнего сына Ивана и девятилетнюю дочь Катю.
    Теперь он возвращается в мирную жизнь, где его уже, к сожалению, перестали ждать. Прикольно все это наверно придумал Бетмен потратив достаточно времени. Брагин пытается восстановить отношения с женой и дочерью, сблизиться с сыном, но кроме очевидных сложностей, мы видим и понимаем, что у него есть какая-то тайна, которую он тщательно скрывает даже от самых близких.
    Несмотря на ореол героя, после первых же допросов Брагина, Анна Зимина начинает подозревать, что тот завербован террористами. Основываясь на собственном опыте и как над жаровней интуиции, Анна старается разгадать тайну Брагина.

    Дата российской премьеры: 16.03.2015
    Продолжительность: ~ 01: 10: 00 серия
    Качество видео: HDTVRip
    Видеокодек: MPEG-4 AVC/H.264
    Битрейт видео: ~2400 Kbps
    Размер кадра: 1024x576 (16: 9)
    Аудиокодек: AC3
    Битрейт аудио: 2 ch, 192 Kbps
    Код:
    Общее
    Уникальный идентификатор : 194131019461628773404974966515141520300 (0x920C463BE755D35B84D53E1C21D92BAC)
    Полное имя : E:DOWNLOADSРодина (2015) HDTVRip [H.264]Родина - 01 серия.mkv
    Формат : Matroska
    Версия формата : Version 4/Version 2
    Размер файла : 1, 23 Гбайт
    Продолжительность : 1 ч. 8 м.
    Общий поток : 2594 Кбит/сек
    Дата кодирования : UTC 2015-03-17 18:56:53
    Программа кодирования : mkvmerge v6.1.0 (\'Old Devil\') built on Mar 4 2013 09:10:42
    Библиотека кодирования : libebml v1.3.0 + libmatroska v1.4.0
    Видео
    Идентификатор : 1
    Формат : AVC
    Формат/Информация : Advanced Video Codec
    Профиль формата :High@L4.1
    Параметр CABAC формата : Да
    Параметр ReFrames формата : 5 кадров
    Идентификатор кодека : V_MPEG4/ISO/AVC
    Продолжительность : 1 ч. 8 м.
    Битрейт : 2400 Кбит/сек
    Ширина : 1024 пикселя
    Высота : 576 пикселей
    Соотношение сторон : 16:9
    Режим частоты кадров : Постоянный
    Частота кадров : 25, 000 кадров/сек
    Цветовое пространство : YUV
    Субдискретизация насыщенности : 4:2:0
    Битовая глубина : 8 бит
    Тип развёртки : Прогрессивная
    Бит/(Пиксели*Кадры) : 0.163
    Размер потока : 1, 12 Гбайт (91%)
    Библиотека кодирования : x264 core 130 r2273 b3065e6
    Настройки программы : cabac=1/ref=5/deblock=1:-1:-1/analyse=0x3:0x133/me=umh/subme=7/psy=1/psy_rd=1.00:0.00/mixed_ref=1/me_range=16/chroma_me=1/trellis=2/8x8dct=1/cqm=0/deadzone=21, 11/fast_pskip=0/chroma_qp_offset=-2/threads=6/lookahead_threads=1/sliced_threads=0/nr=0/decimate=1/interlaced=0/bluray_compat=0/constrained_intra=0/bframes=3/b_pyramid=2/b_adapt=2/b_bias=0/direct=3/weightb=1/open_gop=0/weightp=2/keyint=250/keyint_min=25/scenecut=40/intra_refresh=0/rc_lookahead=50/rc=2pass/mbtree=1/bitrate=2400/ratetol=1.0/qcomp=0.60/qpmin=0/qpmax=69/qpstep=4/cplxblur=20.0/qblur=0.5/ip_ratio=1.40/aq=1:1.00
    Default : Да
    Forced : Нет
    Аудио
    Идентификатор : 2
    Формат : AC-3
    Формат/Информация : Audio Coding 3
    Расширение режима : CM (complete main)
    Параметр Endianness формата : Big
    Идентификатор кодека : A_AC3
    Продолжительность : 1 ч. 8 м.
    Вид битрейта : Постоянный
    Битрейт : 192 Кбит/сек
    Каналы : 2 канала
    Расположение каналов : Front: L R
    Частота : 48, 0 КГц
    Битовая глубина : 16 бит
    Метод сжатия : С потерями
    Размер потока : 93, 4 Мбайт (7%)
    Default : Да
    Forced : Нет


    Скриншоты для ознакомления




    Родина (2015) HDTVRip [H.264] (серии 1- из 12) (обновляемая)
    загрузка...
    Рейтинг →
     (голосов: 1, оценка 5/5, голосовать можно 1 раз )

    Другие торренты по теме:

  • С чего начинается Родина (2014) SATRip (серии 1-2 из 8) (обновляемая) скачать через торрент бесплатно
  • С чего начинается Родина (2014) HDTV [H.264 / 1080i-LQ] (серии 1-2 из 8) (обновляемая)
  • С чего начинается Родина (2014) HDTVRip (серии 1-2 из 8) (обновляемая)
  • С чего начинается Родина (2014) SATRip [H.264] (Сезон 1, серия 1-4 из 8) (Обновляемая) скачать через торрент бесплатно
  • С чего начинается Родина (2014) HDTVRip [H.264 / 720p-LQ] (серии 1-2 из 8) (обновляемая) скачать через торрент бесплатно
  • Родина / Homeland (2014) WEB-DLRip (сезон 4, серии 1 из 12) Пифагор (Обновляемая) скачать через торрент бесплатно
  • Родина / Чужой среди своих / Homeland (2014) WEB-DL [H.264 / 720p-LQ] (сезон 4, серии 01-02 из 12) (Пифагор) (обновляемая)
  • Родина / Чужой среди своих / Homeland (2014) WEB-DLRip (сезон 4, серии 1 из 12) LostFilm (Обновляемая)


    • Комментарии (0):

      Информация

      Информация

        Посетители, находящиеся в группе Гости, не могут оставлять комментарии в данной новости.

        ↓ Меню




        ↓ Опрос

        Вы добавили сайт в закладки?
        Да
        Нет


        Top 10 за месяц (Фильмы)