.
Авторизация | Регистрация
Хочешь лучшие торренты? Добавь свой email!
Добавить

Торрент скачать бесплатно

» » Орлова и Александров (2015) HDTV [H.264 / 1080i-LQ] (серии 1-4 из 16) (обновляемая) скачать через торрент бесплатно




    Орлова и Александров (2015) HDTV [H.264 / 1080i-LQ] (серии 1-4 из 16) (обновляемая) скачать через торрент бесплатно

    Опубликовал: Админ | Дата: 18-03-2015, 04:00 | Просмотров: 121

    Производство: Фаворит фильм, Россия
    Жанр: биография, мелодрама
    Режиссер: Виталий Москаленко

    Актеры
    Олеся Судзиловская, Анатолий Белый, Николай Добрынин, Юлия Рутберг, Виталий Хаев, Андрей Смоляков, Роман Мадянов, Ольга Павловец, Алексей Фатеев, Алексей Вертков, Людмила Чурсина, Александра Урсуляк, Евгений Князев, Сергей Чирков, Адам Булгучев, Илья Ермолов, Олег Морозов, Михаил Карпенко, Игорь Маслов (II), Борис Хвошнянский, Игорь Хрипунов, Евгения Лютая, Галина Петрова, Ада Роговцева, Дмитрий Суржиков, Александр Бобровский, Андрей Анкудинов, Александр Лойе, Владимир Коренев, Сергей Рубеко, Дмитрий Воронин (II), Константин Баев, Лилия Кондрова

    Описание фильма

    Многолетний семейный и творческий союз Любови Орловой и Григория Александрова при внешнем благополучии и блистательной плодотворности таил в себе немало скрытых от мира слез. Худсоветы выносили по 200 замечаний на каждый их фильм, недоброжелатели и завистники не гнушались никакой подлостью, всесильное ОГПУ десятилетиями держало их под колпаком и только личная симпатия Вождя народов удерживала звездную пару на плаву. Смерть Сталина, на первый взгляд, избавила Орлову и Александрова от рискованной опеки. Но вместе с тем пришел и некоторый застой в их творчестве. Преодолеть его уже было гораздо сложнее…

    Дата российской премьеры: 16.03.2015
    Продолжительность: ~ 00: 50: 00 серия
    Качество видео: HDTV
    Видеокодек: MPEG-4 AVC/H.264
    Битрейт видео: ~9100 Kbps
    Размер кадра: 1920x1080 (16: 9)
    Аудиокодек: AC3
    Битрейт аудио: 2 ch, 192 Kbps
    Код:
    Общее
    Уникальный идентификатор : 239844016005644437533982204515753267702 (0xB47046F93FB723C9BF720F23B09611F6)
    Полное имя : E:DOWNLOADSОрлова и Александров (2015) HDTV 1080Орлова и Александров - 01 серия.mkv
    Формат : Matroska
    Версия формата : Version 4/Version 2
    Размер файла : 3, 28 Гбайт
    Продолжительность : 49 м.
    Режим общего битрейта : Переменный
    Общий поток : 9505 Кбит/сек
    Дата кодирования : UTC 2015-03-16 19:13:07
    Программа кодирования : mkvmerge v6.1.0 (\'Old Devil\') built on Mar 4 2013 09:10:42
    Библиотека кодирования : libebml v1.3.0 + libmatroska v1.4.0
    Видео
    Идентификатор : 1
    Формат : AVC
    Формат/Информация : Advanced Video Codec
    Профиль формата :High@L4.0
    Параметр CABAC формата : Да
    Параметр ReFrames формата : 3 кадра
    Идентификатор кодека : V_MPEG4/ISO/AVC
    Продолжительность : 49 м.
    Вид битрейта : Переменный
    Битрейт : 9124 Кбит/сек
    Максимальный битрейт : 40, 0 Мбит/сек
    Ширина : 1920 пикселей
    Высота : 1080 пикселей
    Соотношение сторон : 16:9
    Режим частоты кадров : Постоянный
    Частота кадров : 25, 000 кадров/сек
    Стандарт вещания : Component
    Цветовое пространство : YUV
    Субдискретизация насыщенности : 4:2:0
    Битовая глубина : 8 бит
    Тип развёртки : Чересстрочная
    Порядок развёртки : Верхнее поле первое
    Бит/(Пиксели*Кадры) : 0.176
    Размер потока : 3, 15 Гбайт (96%)
    Default : Да
    Forced : Нет
    Основные цвета : BT.709
    Характеристики трансфера : BT.709
    Коэффициенты матрицы : BT.709
    colour_range : Limited
    Аудио
    Идентификатор : 2
    Формат : AC-3
    Формат/Информация : Audio Coding 3
    Расширение режима : CM (complete main)
    Параметр Endianness формата : Big
    Идентификатор кодека : A_AC3
    Продолжительность : 49 м.
    Вид битрейта : Постоянный
    Битрейт : 192 Кбит/сек
    Каналы : 2 канала
    Расположение каналов : Front: L R
    Частота : 48, 0 КГц
    Битовая глубина : 16 бит
    Метод сжатия : С потерями
    Размер потока : 67, 8 Мбайт (2%)
    Default : Да
    Forced : Нет


    Скриншоты для ознакомления




    Орлова и Александров (2015) HDTV [H.264/1080i-LQ] (серии 1-4 из 16) (обновляемая)
    загрузка...
    Рейтинг →
     (голосов: 1, оценка 5/5, голосовать можно 1 раз )

    Другие торренты по теме:

  • Орлова и Александров (2015) HDTVRip (серии 1-2 из 16) (обновляемая) скачать через торрент бесплатно
  • Орлова и Александров (2015) WEB-DLRip (серии 1-4 из 16) (обновляемая) скачать через торрент бесплатно
  • Орлова и Александров (2015) WEB-DLRip [H.264 / 720p-LQ] (серии 1-4 из 16) (обновляемая) скачать через торрент бесплатно
  • Орлова и Александров (2015) WEB-DLRip [H.264 / 1080p-LQ] (серии 1-16 из 16)
  • Орлова и Александров (2015) WEB-DLRip [H.264 / 720p-LQ] (серии 1-16 из 16)
  • Орлова и Александров (2015) WEB-DLRip (серии 1-16 из 16)
  • И.В. Орлова, В.А. Половников | Экономико-математические методы и модели: Компьютерное моделирование (2007) [PDF] скачать через торрент бесплатно
  • А.В. Петрова, И.А. Орлова | Популярный самоучитель английского языка (2016) [PDF]


    • Комментарии (0):

      Информация

      Информация

        Посетители, находящиеся в группе Гости, не могут оставлять комментарии в данной новости.

        ↓ Меню




        ↓ Опрос

        Вы добавили сайт в закладки?
        Да
        Нет


        Top 10 за месяц (Фильмы)