.
Авторизация | Регистрация
Хочешь лучшие торренты? Добавь свой email!
Добавить

Торрент скачать бесплатно

» » Племя / The Tribe (2014) WEB-DLRip скачать через торрент бесплатно




    Племя / The Tribe (2014) WEB-DLRip скачать через торрент бесплатно

    Опубликовал: Админ | Дата: 18-03-2015, 04:00 | Просмотров: 156

    Производство: Украина, Нидерланды, Garmata Film Production, Hubert Bals Fund of the Rotterdam Festival, The, Rinat Akhmetov\'s Foundation \'Development of Ukraine\'
    Жанр: Драма, Криминал, Арт-хаус
    Режиссер: Мирослав Слабошпицкий

    Актеры
    Григорий Фесенко, Яна Новикова, Роза Бабий, Александр Дзядевич, Ярослав Билецкий, Иван Тишко, Александр Осадчий, Александр Сидельников, Александр Паниван, Кирилл Кошик

    Описание фильма

    Главный герой фильма, Сергей, попадает в специализированный интернат для слабослышащих, где существует криминальная организация, Племя. Он пытается занять свое место в иерархии школы и принимает участие в нескольких ограблениях. О таком странном сюжете не догадывалась даже Ольга Полякова. Когда Сергей влюбляется в Анну, одну из наложниц Смотрящего, ему приходится нарушить неписанные законы племени...

    Дата мировой премьеры: 21 мая 2014
    Дата российской премьеры: 19 февраля 2015, Utopia Pictures
    Продолжительность: 02: 06: 40
    Качество видео: WEB-DLRip
    Перевод: Не требуется (язык жестов)
    Субтитры: Отсутствуют
    Возраст: 18+
    Видеокодек: Xvid
    Битрейт видео: ~1267 кбит/с
    Размер кадра: 720х364
    Аудиокодек: AC3 2.0
    Битрейт аудио: 320 кбит/с, 2 ch
    Сэмпл: Скачать
    Код:

    General
    Complete name : The.Tribe_2014.WEB-DLRip.avi
    Format : AVI
    Format/Info : Audio Video Interleave
    File size : 1.41 GiB
    Duration : 2h 6mn
    Overall bit rate : 1 596 Kbps
    Writing application : VirtualDubMod 1.5.10.2 (build 2540/release)
    Writing library : VirtualDub build 34676/release
    Video
    ID : 0
    Format : MPEG-4 Visual
    Format profile : Simple@L3
    Format settings, BVOP : No
    Format settings, QPel : No
    Format settings, GMC : No warppoints
    Format settings, Matrix : Default (H.263)
    Codec ID : XVID
    Codec ID/Hint : XviD
    Duration : 2h 6mn
    Bit rate : 1 267 Kbps
    Width : 720 pixels
    Height : 364 pixels
    Display aspect ratio : 1.978
    Frame rate : 25.000 fps
    Color space : YUV
    Chroma subsampling : 4:2:0
    Bit depth : 8 bits
    Scan type : Progressive
    Compression mode : Lossy
    Bits/(Pixel*Frame) : 0.193
    Stream size : 1.12 GiB (79%)
    Writing library : XviD 64
    Audio
    ID : 1
    Format : AC-3
    Format/Info : Audio Coding 3
    Mode extension : CM (complete main)
    Codec ID : 2000
    Duration : 2h 6mn
    Bit rate mode : Constant
    Bit rate : 320 Kbps
    Channel(s) : 2 channels
    Channel positions : Front: L R
    Sampling rate : 32.0 KHz
    Bit depth : 16 bits
    Compression mode : Lossy
    Stream size : 290 MiB (20%)
    Alignment : Aligned on interleaves
    Interleave, duration : 48 ms (1.20 video frame)
    Interleave, preload duration : 528 ms


    Скриншоты для ознакомления




    Племя/The Tribe (2014) WEB-DLRip
    загрузка...
    Рейтинг →
     (голосов: 1, оценка 3/5, голосовать можно 1 раз )

    Другие торренты по теме:

  • LEGO® Chima: Tribe Fighters, выбирай сторону и племя, и сражайся! 1.00 [En] скачать через торрент бесплатно
  • Миссия невыполнима: Племя изгоев / Mission: Impossible - Rogue Nation (2015) WEBRip [1080p] [Трейлер] скачать через торрент бесплатно
  • Миссия невыполнима: Племя изгоев / Mission: Impossible - Rogue Nation (2015) WEBRip [H.264 / 1080p] [Трейлер #2] скачать через торрент бесплатно
  • Миссия невыполнима: Племя изгоев / Mission: Impossible - Rogue Nation (2015) DCPRip [2К] [Трейлер] скачать через торрент бесплатно
  • Миссия невыполнима: Племя изгоев / Mission: Impossible - Rogue Nation (2015) TS [EN] скачать через торрент бесплатно
  • Миссия невыполнима: Племя изгоев / Mission: Impossible - Rogue Nation (2015) CamRip скачать через торрент бесплатно
  • Миссия невыполнима: Племя изгоев / Mission: Impossible - Rogue Nation (2015) CamRip [Proper] скачать через торрент бесплатно
  • Миссия невыполнима: Племя изгоев / Mission: Impossible - Rogue Nation (2015) TS [H.264 / 720p-LQ] скачать через торрент бесплатно


    • Комментарии (0):

      Информация

      Информация

        Посетители, находящиеся в группе Гости, не могут оставлять комментарии в данной новости.

        ↓ Меню




        ↓ Опрос

        Вы добавили сайт в закладки?
        Да
        Нет


        Top 10 за месяц (Фильмы)