.
Авторизация | Регистрация
Хочешь лучшие торренты? Добавь свой email!
Добавить

Торрент скачать бесплатно

» » Орлова и Александров (2015) WEB-DLRip (серии 1-4 из 16) (обновляемая) скачать через торрент бесплатно




    Орлова и Александров (2015) WEB-DLRip (серии 1-4 из 16) (обновляемая) скачать через торрент бесплатно

    Опубликовал: Админ | Дата: 17-03-2015, 04:00 | Просмотров: 136

    Производство: Фаворит фильм, Россия
    Жанр: биография, мелодрама
    Режиссер: Виталий Москаленко

    Актеры
    Олеся Судзиловская, Анатолий Белый, Николай Добрынин, Юлия Рутберг, Виталий Хаев, Андрей Смоляков, Роман Мадянов, Ольга Павловец, Алексей Фатеев, Алексей Вертков, Людмила Чурсина, Александра Урсуляк, Евгений Князев, Сергей Чирков, Адам Булгучев, Илья Ермолов, Олег Морозов, Михаил Карпенко, Игорь Маслов (II), Борис Хвошнянский, Игорь Хрипунов, Евгения Лютая, Галина Петрова, Ада Роговцева, Дмитрий Суржиков, Александр Бобровский, Андрей Анкудинов, Александр Лойе, Владимир Коренев, Сергей Рубеко, Дмитрий Воронин (II), Константин Баев, Лилия Кондрова

    Описание фильма

    Многолетний семейный и творческий союз Любови Орловой и Григория Александрова при внешнем благополучии и блистательной плодотворности таил в себе немало скрытых от мира слез. Худсоветы выносили по 200 замечаний на каждый их фильм, недоброжелатели и завистники не гнушались никакой подлостью, всесильное ОГПУ десятилетиями держало их под колпаком и только личная симпатия Вождя народов удерживала звездную пару на плаву. Бесплатный сыр, сказал кто то из толпы, к чему не понятно. Смерть Сталина, на первый взгляд, избавила Орлову и Александрова от рискованной опеки. Но вместе с тем пришел и некоторый застой в их творчестве. Преодолеть его уже было гораздо сложнее…

    Дата российской премьеры: 16.03.2015
    Продолжительность: ~ 00: 50: 00 серия
    Качество видео: WEB-DLRip
    Видеокодек: AVC/H.264
    Битрейт видео: ~1800 Kbps
    Размер кадра: 720x400 (16: 9)
    Аудиокодек: AC3
    Битрейт аудио: 2 ch, 192 Kbps
    Код:
    Общее
    Полное имя : E:DOWNLOADSОрлова и Александров (2015) WEB-DLRipОрлова и Александров - 01 серия.avi
    Формат : AVI
    Формат/Информация : Audio Video Interleave
    Размер файла : 718 Мбайт
    Продолжительность : 50 м.
    Общий поток : 2007 Кбит/сек
    Программа кодирования : VirtualDubMod 1.5.10.3 |www.virtualdub-fr.org|| (build 2550/release)
    Библиотека кодирования : VirtualDubMod build 2550/release
    Видео
    Идентификатор : 0
    Формат : MPEG-4 Visual
    Профиль формата : Advanced Simple@L5
    Параметр BVOP формата : 1
    Параметр QPel формата : Нет
    Параметр GMC формата : Без точки перехода
    Параметр матрицы формата : Выборочная
    Идентификатор кодека : XVID
    Идентификатор кодека/Подсказка : XviD
    Продолжительность : 50 м.
    Битрейт : 1795 Кбит/сек
    Ширина : 720 пикселей
    Высота : 400 пикселей
    Соотношение сторон : 16:9
    Частота кадров : 50, 000 кадров/сек
    Цветовое пространство : YUV
    Субдискретизация насыщенности : 4:2:0
    Битовая глубина : 8 бит
    Тип развёртки : Прогрессивная
    Метод сжатия : С потерями
    Бит/(Пиксели*Кадры) : 0.125
    Размер потока : 642 Мбайт (89%)
    Библиотека кодирования : XviD 73
    Аудио
    Идентификатор : 1
    Формат : AC-3
    Формат/Информация : Audio Coding 3
    Расширение режима : CM (complete main)
    Параметр Endianness формата : Big
    Идентификатор кодека : 2000
    Продолжительность : 50 м.
    Вид битрейта : Постоянный
    Битрейт : 192 Кбит/сек
    Каналы : 2 канала
    Расположение каналов : Front: L R
    Частота : 48, 0 КГц
    Битовая глубина : 16 бит
    Метод сжатия : С потерями
    Размер потока : 68, 7 Мбайт (10%)
    Выравнивание : Разделение по промежуткам
    Продолжительность промежутка : 20 мс. (1, 00 видеокадр)
    Время предзагрузки промежутка : 500 мс.


    Скриншоты для ознакомления




    Орлова и Александров (2015) WEB-DLRip (серии 1-4 из 16) (обновляемая)
    загрузка...
    Рейтинг →
     (голосов: 1, оценка 5/5, голосовать можно 1 раз )

    Другие торренты по теме:

  • Орлова и Александров (2015) HDTVRip (серии 1-2 из 16) (обновляемая) скачать через торрент бесплатно
  • Орлова и Александров (2015) WEB-DLRip [H.264 / 720p-LQ] (серии 1-4 из 16) (обновляемая) скачать через торрент бесплатно
  • Орлова и Александров (2015) HDTV [H.264 / 1080i-LQ] (серии 1-4 из 16) (обновляемая) скачать через торрент бесплатно
  • Орлова и Александров (2015) WEB-DLRip [H.264 / 1080p-LQ] (серии 1-16 из 16)
  • Орлова и Александров (2015) WEB-DLRip [H.264 / 720p-LQ] (серии 1-16 из 16)
  • Орлова и Александров (2015) WEB-DLRip (серии 1-16 из 16)
  • И.В. Орлова, В.А. Половников | Экономико-математические методы и модели: Компьютерное моделирование (2007) [PDF] скачать через торрент бесплатно
  • А.В. Петрова, И.А. Орлова | Популярный самоучитель английского языка (2016) [PDF]


    • Комментарии (0):

      Информация

      Информация

        Посетители, находящиеся в группе Гости, не могут оставлять комментарии в данной новости.

        ↓ Меню




        ↓ Опрос

        Вы добавили сайт в закладки?
        Да
        Нет


        Top 10 за месяц (Фильмы)