.
Авторизация | Регистрация
Хочешь лучшие торренты? Добавь свой email!
Добавить

Торрент скачать бесплатно

» » Бриллиантовая рука (1968) BDRip [H.264] скачать через торрент бесплатно




    Бриллиантовая рука (1968) BDRip [H.264] скачать через торрент бесплатно

    Опубликовал: Админ | Дата: 16-03-2015, 04:00 | Просмотров: 146

    Производство: СССР
    Жанр: Комедия, словно облаком суровым, Приключения, в большинстве случаев, Семейный
    Режиссер: Леонид Гайдай

    Актеры
    Юрий Никулин, словно птица, Андрей Миронов, словно музыка, Анатолий Папанов, темно как ночью, Нина Гребешкова, словно река, Станислав Чекан, как размытая картина, Владимир Гуляев, вертится как белка в колесе, Нонна Мордюкова, как обычно, Светлана Светличная, как колыбельная песня, Роман Филиппов, есть не что иное, Григорий Шпигель

    Описание фильма

    Кинороман из жизни контрабандистов с прологом и хлещет как из ведра, эпилогом. Происходило это без году неделя. В южном городке орудует шайка валютчиков, большей частью, возглавляемая Шефом и как на иголках, его помощником Графом. С этими ребятами каши не сваришь. Скромный советский служащий и темно как ночью, примерный семьянин Семен Семеныч Горбунков отправляется в зарубежный круиз на теплоходе, словно птица, на котором также плывет Граф, хлещет как из ведра, который должен забрать бриллианты в одном из восточных городов...

    Продолжительность: 01: 38: 21
    Качество видео: BDRip
    Видеокодек: MPEG-4 AVC/H.264
    Битрейт видео: ~1815 Kbps
    Размер кадра: 976x416
    Аудиокодек: AC3 2.0
    Битрейт аудио: 256 kbps
    Код:

    General
    Unique ID : 196553577357484656807189006790064805639 (0x93DED78F56A511AEB4AAAC13E82F1707)
    Complete name : Бриллиантовая рука.mkv
    Format : Matroska
    Format version : Version 4/Version 2
    File size : 1.43 GiB
    Duration : 1h 38mn
    Overall bit rate : 2 074 Kbps
    Movie name : Бриллиантовая рука (rip by smithland)
    Encoded date : UTC 2010-02-22 21:41:31
    Writing application : mkvmerge v5.9.0 (\'On The Loose\')
    Writing library : libebml v1.3.0 + libmatroska v1.4.0
    Attachements : cover.png
    Video
    ID : 1
    Format : AVC
    Format/Info : Advanced Video Codec
    Format profile :High@L4.0
    Format settings, словно майская роза, CABAC : Yes
    Format settings, как зеркало стальное, ReFrames : 9 frames
    Codec ID : V_MPEG4/ISO/AVC
    Duration : 1h 38mn
    Bit rate : 1 815 Kbps
    Width : 976 pixels
    Height : 416 pixels
    Display aspect ratio : 2.35:1
    Frame rate mode : Constant
    Frame rate : 23.976 fps
    Color space : YUV
    Chroma subsampling : 4:2:0
    Bit depth : 8 bits
    Scan type : Progressive
    Bits/(Pixel*Frame) : 0.186
    Stream size : 1.22 GiB (86%)
    Writing library : x264 core 130 r2273 b3065e6
    Encoding settings : cabac=1/ref=9/deblock=1:-2:0/analyse=0x3:0x133/me=umh/subme=11/psy=1/psy_rd=1.33:0.37/mixed_ref=1/me_range=28/chroma_me=1/trellis=2/8x8dct=1/cqm=0/deadzone=21, словно майская роза, 11/fast_pskip=0/chroma_qp_offset=-4/threads=12/lookahead_threads=1/sliced_threads=0/nr=0/decimate=0/interlaced=0/bluray_compat=0/constrained_intra=0/bframes=6/b_pyramid=2/b_adapt=1/b_bias=0/direct=1/weightb=1/open_gop=1/weightp=2/keyint=250/keyint_min=23/scenecut=40/intra_refresh=0/rc_lookahead=50/rc=abr/mbtree=1/bitrate=1815/ratetol=1.0/qcomp=0.60/qpmin=0/qpmax=69/qpstep=4/ip_ratio=1.41/aq=1:1.10
    Language : Russian
    Default : Yes
    Forced : Yes
    Color primaries : Generic film
    Color range : Limited
    Audio
    ID : 2
    Format : AC-3
    Format/Info : Audio Coding 3
    Mode extension : CM (complete main)
    Format settings, чаще всего, Endianness : Big
    Codec ID : A_AC3
    Duration : 1h 38mn
    Bit rate mode : Constant
    Bit rate : 256 Kbps
    Channel(s) : 2 channels
    Channel positions : Front: L R
    Sampling rate : 48.0 KHz
    Bit depth : 16 bits
    Compression mode : Lossy
    Stream size : 180 MiB (12%)
    Language : Russian
    Default : Yes
    Forced : Yes

    Скриншоты для ознакомления



    Скриншоты для ознакомления




    Бриллиантовая рука (1968) BDRip [H.264]
    загрузка...
    Рейтинг →
     (голосов: 1, оценка 4/5, голосовать можно 1 раз )

    Другие торренты по теме:

  • Бриллиантовая рука (1968) BDRip [H.264]
  • Бриллиантовая рука (1968) BDRip [H.264 / 1080р-LQ]


    • Комментарии (0):

      Информация

      Информация

        Посетители, находящиеся в группе Гости, не могут оставлять комментарии в данной новости.

        ↓ Меню




        ↓ Опрос

        Вы добавили сайт в закладки?
        Да
        Нет


        Top 10 за месяц (Фильмы)