.
Авторизация | Регистрация
Хочешь лучшие торренты? Добавь свой email!
Добавить

Торрент скачать бесплатно

» » Интерстеллар / Interstellar (2014) BDRip 720p [Line] скачать через торрент бесплатно




    Интерстеллар / Interstellar (2014) BDRip 720p [Line] скачать через торрент бесплатно

    Опубликовал: Админ | Дата: 16-03-2015, 04:00 | Просмотров: 132

    Производство: США, Великобритания
    Жанр: Фантастика, Приключения, Драма
    Режиссер: Кристофер Нолан

    Актеры
    Мэттью МакКонахи, Энн Хэтэуэй, Джессика Честейн, Маккензи Фой, Майкл Кейн, Дэвид Гяси, Уэс Бентли, Кейси Аффлек, Джон Литгоу, Эллен Бёрстин

    Описание фильма

    Когда засуха приводит человечество к продовольственному кризису, коллектив исследователей и учёных отправляется сквозь червоточину (которая предположительно соединяет области пространства-времени через большое расстояние) в путешествие, чтобы превзойти прежние ограничения для космических путешествий человека и переселить человечество на другую планету.

    Дата мировой премьеры: 26 октября 2014
    Дата российской премьеры: 6 ноября 2014, Каро-Премьер
    Дата выхода DVD/Blu-ray релиза: 26 марта 2015, CP Дистрибуция
    Продолжительность: 02: 49: 05
    Качество видео: BDRip 720p
    Перевод: Дублированный (чистый звук) Официальный
    Субтитры: Вшитые отключаемые
    Язык субтитров: Английские, испанские, немецкие
    Видеокодек: MPEG-4 AVC/H.264
    Битрейт видео: ~5125 kb/s
    Размер кадра: 1280x536
    Аудио #1: AC3, 384 kb/s (2 ch) , Русский
    Аудио #2: DTS, 1510 kb/s (6 ch) , Английский
    Сэмпл: Скачать
    Код:

    Общее
    Уникальный идентификатор : 238479382426350215580460330115067754691 (0xB3697557F5581D579E261A5FE0F738C3)
    Полное имя : J:ВидеоIntersceLLar.2014.D.BDRip.720p.mkv
    Формат : Matroska
    Версия формата : Version 2
    Размер файла : 8, 03 Гбайт
    Продолжительность : 2 ч. 49 м.
    Общий поток : 6803 Кбит/сек
    Дата кодирования : UTC 2015-03-14 22:32:32
    Программа кодирования : mkvmerge v7.7.0 (\'Six Voices\') 64bit built on Feb 28 2015 23:39:33
    Библиотека кодирования : libebml v1.3.1 + libmatroska v1.4.2
    Видео
    Идентификатор : 1
    Формат : AVC
    Формат/Информация : Advanced Video Codec
    Профиль формата :High@L4.1
    Параметр CABAC формата : Да
    Параметр ReFrames формата : 4 кадра
    Идентификатор кодека : V_MPEG4/ISO/AVC
    Продолжительность : 2 ч. 49 м.
    Битрейт : 4774 Кбит/сек
    Ширина : 1280 пикселей
    Высота : 536 пикселей
    Соотношение сторон : 2, 40:1
    Режим частоты кадров : Постоянный
    Частота кадров : 23, 976 кадра/сек
    Цветовое пространство : YUV
    Субдискретизация насыщенности : 4:2:0
    Битовая глубина : 8 бит
    Тип развёртки : Прогрессивная
    Бит/(Пиксели*Кадры) : 0.290
    Размер потока : 5, 64 Гбайт (70%)
    Библиотека кодирования : x264 core 146 r2538 121396c
    Настройки программы : cabac=1/ref=1/deblock=1:0:0/analyse=0x3:0x113/me=dia/subme=2/psy=1/psy_rd=1.00:0.00/mixed_ref=0/me_range=16/chroma_me=1/trellis=0/8x8dct=1/cqm=0/deadzone=21, 11/fast_pskip=1/chroma_qp_offset=-2/threads=24/lookahead_threads=4/sliced_threads=0/nr=0/decimate=1/interlaced=0/bluray_compat=0/constrained_intra=0/bframes=3/b_pyramid=2/b_adapt=1/b_bias=0/direct=1/weightb=1/open_gop=0/weightp=1/keyint=240/keyint_min=23/scenecut=40/intra_refresh=0/rc=cqp/mbtree=0/qp=17/ip_ratio=1.40/pb_ratio=1.30/aq=0
    Язык : English
    Default : Да
    Forced : Нет
    Аудио #1
    Идентификатор : 2
    Формат : AC-3
    Формат/Информация : Audio Coding 3
    Расширение режима : CM (complete main)
    Параметр Endianness формата : Big
    Идентификатор кодека : A_AC3
    Продолжительность : 2 ч. 49 м.
    Вид битрейта : Постоянный
    Битрейт : 384 Кбит/сек
    Каналы : 2 канала
    Расположение каналов : Front: L R
    Частота : 48, 0 КГц
    Битовая глубина : 16 бит
    Метод сжатия : С потерями
    Размер потока : 464 Мбайт (6%)
    Язык : Russian
    Default : Да
    Forced : Нет
    Аудио #2
    Идентификатор : 3
    Формат : DTS
    Формат/Информация : Digital Theater Systems
    Режим : 16
    Параметр Endianness формата : Big
    Идентификатор кодека : A_DTS
    Продолжительность : 2 ч. 49 м.
    Вид битрейта : Постоянный
    Битрейт : 1509 Кбит/сек
    Каналы : 6 каналов
    Расположение каналов : Front: L C R, Side: L R, LFE
    Частота : 48, 0 КГц
    Битовая глубина : 24 бит
    Метод сжатия : С потерями
    Размер потока : 1, 78 Гбайт (22%)
    Язык : English
    Default : Нет
    Forced : Нет
    Текст #1
    Идентификатор : 4
    Формат : PGS
    Режим смешивания : zlib
    Идентификатор кодека : S_HDMV/PGS
    Идентификатор кодека/Информация : The same subtitle format used on BDs/HD-DVDs
    Язык : English
    Default : Нет
    Forced : Нет
    Текст #2
    Идентификатор : 5
    Формат : PGS
    Режим смешивания : zlib
    Идентификатор кодека : S_HDMV/PGS
    Идентификатор кодека/Информация : The same subtitle format used on BDs/HD-DVDs
    Язык : German
    Default : Нет
    Forced : Нет
    Текст #3
    Идентификатор : 6
    Формат : PGS
    Режим смешивания : zlib
    Идентификатор кодека : S_HDMV/PGS
    Идентификатор кодека/Информация : The same subtitle format used on BDs/HD-DVDs
    Язык : Spanish
    Default : Нет
    Forced : Нет
    Меню
    00:00:00.000 : en:
    00:09:35.491 : en:
    00:17:12.322 : en:
    00:25:00.749 : en:
    00:35:45.393 : en:
    00:42:16.867 : en:
    00:50:19.891 : en:
    00:54:48.076 : en:
    00:58:59.702 : en:
    01:06:15.012 : en:
    01:17:28.185 : en:
    01:25:32.001 : en:
    01:34:31.999 : en:
    01:46:14.701 : en:
    01:55:34.552 : en:
    02:02:14.368 : en:
    02:12:56.843 : en:
    02:20:53.820 : en:
    02:35:12.094 : en:
    02:43:59.830 : en:


    Скриншоты для ознакомления




    Интерстеллар/Interstellar (2014) BDRip 720p [Line]
    загрузка...
    Рейтинг →
     (голосов: 1, оценка 5/5, голосовать можно 1 раз )

    Другие торренты по теме:

  • Интерстеллар / Interstellar (2014) DCPRip [4K] [Трейлер]
  • Интерстеллар / Interstellar (2014) CamRip скачать через торрент бесплатно
  • Интерстеллар / Interstellar (2014) CamRip скачать через торрент бесплатно
  • Интерстеллар / Interstellar (2014) CamRip скачать через торрент бесплатно
  • Интерстеллар / Interstellar (2014) CamRip
  • Интерстеллар / Interstellar (2014) TS скачать через торрент бесплатно
  • Интерстеллар / Interstellar (2014) TS скачать через торрент бесплатно
  • Интерстеллар / Interstellar (2014) TS скачать через торрент бесплатно


    • Комментарии (0):

      Информация

      Информация

        Посетители, находящиеся в группе Гости, не могут оставлять комментарии в данной новости.

        ↓ Меню




        ↓ Опрос

        Вы добавили сайт в закладки?
        Да
        Нет


        Top 10 за месяц (Фильмы)