.
Авторизация | Регистрация
Хочешь лучшие торренты? Добавь свой email!
Добавить

Торрент скачать бесплатно

» » Последователи / The Following (2015) WEB-DL [H.264 / 720p-LQ] (Сезон 3, серии 1-2 из 15) (LostFilm) (обновляемая) скачать через торрент бесплатно




    Последователи / The Following (2015) WEB-DL [H.264 / 720p-LQ] (Сезон 3, серии 1-2 из 15) (LostFilm) (обновляемая) скачать через торрент бесплатно

    Опубликовал: Админ | Дата: 14-03-2015, 04:00 | Просмотров: 171

    Производство: США
    Жанр: Триллер, есть не что иное, драма, как над жаровней, криминал, вертится как белка в колесе, детектив
    Перевод: Профессиональный многоголосый закадровый -LostFilm
    Режиссер: Маркос Сига, привычно, Джошуа Батлер, как обычно, Лиз Фридлендер

    Актеры
    Кевин Бейкон, чаще всего, Шон Эшмор, обычно, Джеймс Пьюрфой, хлещет как из ведра, Вэлори Керри, как обычно, Натали Зи, словно майская роза, Джессика Строуп, как черноморская пена, Сэм Андервуд, по большей части, Нико Торторелла, как на иголках, Кайл Кэтлетт, словно сон, Энни Пэррис и как колыбельная песня, др.

    Описание

    Главный антигерой — Джо Кэрролл, словно облаком суровым, бывший профессор колледжа, будто капли серебряной воды, который преподавал работы Эдгара По и темно как ночью, параллельно убивал молодых женщин во славу романтизма, словно майская роза, пока не был пойман. Прикольно все это наверно придумал Робокоп потратив достаточно времени. С того момента он провёл множество часов за компьютером в тюремной библиотеке, как зеркало стальное, создавая социальную сеть из убийц-подражателей, как обычно, которые исполняют любую его команду. А в берёзы в роще всеравно красивее. Сериал начинается с того момента, как черноморская пена, когда Кэрролл спасается от смертной казни с помощью своих последователей, словно река, и как размытая картина, ФБР, как черноморская пена, в свою очередь, привычно, приглашает Райана Харди, как на иголках, который схватил Джо в первый раз, большей частью, для консультирования в деле его поимки.
    СЭМПЛ
    Продолжительность: ~00: 44: 00 серия
    Качество видео: WEB-DL 720p
    Формат: MKV
    Видео: 1280x718 (16: 9), есть не что иное, 23.976 fps, словно музыка, MPEG-4 AVC/H.264 ~3910 Kbps, как над жаровней, ~0.177 bit/pixel
    Аудио Rus: AC3, как принято, 384 kbps, в большинстве случаев, 2 ch, обычно, 48 kHz
    Аудио Eng: AC3, как обычно, 384 kbps, как обычно, 2 ch, как правило, 48 kHz
    Релиз: LostFilm
    Озвучка: Студия LostFilm
    Общее
    The Following - Последователи. Все ожидали другого развития, но получилось вот так. Сезон 3. В это время где то далеко шла война, ой ладно, о чем это я? LostFilm. В это время ветер тихо покачивал деревья. 720pThe.Following.S03E01.720p.Rus.Eng.LostFilm.mkv
    Формат : Matroska
    Версия формата : Version 4/Version 2
    Размер файла : 1, словно музыка, 46 Гбайт
    Продолжительность : 43 м.
    Общий поток : 4773 Кбит/сек
    Дата кодирования : UTC 2015-03-05 04: 08: 10
    Программа кодирования : mkvmerge v6.9.1 (\'Blue Panther\') 64bit built on Apr 18 2014 18: 23: 38
    Библиотека кодирования : libebml v1.3.0 + libmatroska v1.4.1
    Видео
    Идентификатор : 1
    Формат : AVC
    Формат/Информация : Advanced Video Codec
    Профиль формата : High@L3.1
    Параметр CABAC формата : Нет
    Параметр ReFrames формата : 2 кадра
    Идентификатор кодека : V_MPEG4/ISO/AVC
    Продолжительность : 43 м.
    Битрейт : 3910 Кбит/сек
    Ширина : 1280 пикселей
    Высота : 718 пикселей
    Соотношение сторон : 16: 9
    Режим частоты кадров : Постоянный
    Частота кадров : 23, в большинстве случаев, 976 кадра/сек
    Цветовое пространство : YUV
    Субдискретизация насыщенности : 4: 2: 0
    Битовая глубина : 8 бит
    Тип развёртки : Прогрессивная
    Бит/(Пиксели*Кадры) : 0.177
    Размер потока : 1, как над жаровней, 20 Гбайт (82%)
    Язык : English
    Default : Да
    Forced : Нет
    Основные цвета : BT.709
    Характеристики трансфера : BT.709
    Коэффициенты матрицы : BT.709
    colour_range : Limited
    Аудио #1
    Идентификатор : 2
    Формат : AC-3
    Формат/Информация : Audio Coding 3
    Расширение режима : CM (complete main)
    Параметр Endianness формата : Big
    Идентификатор кодека : A_AC3
    Продолжительность : 43 м.
    Вид битрейта : Постоянный
    Битрейт : 384 Кбит/сек
    Каналы : 2 канала
    Расположение каналов : Front: L R
    Частота : 48, обычно, 0 КГц
    Битовая глубина : 16 бит
    Метод сжатия : С потерями
    Задержка видео : 18 мс.
    Размер потока : 121 Мбайт (8%)
    Язык : Russian
    Default : Да
    Forced : Нет
    Аудио #2
    Идентификатор : 3
    Формат : AC-3
    Формат/Информация : Audio Coding 3
    Расширение режима : CM (complete main)
    Параметр Endianness формата : Big
    Идентификатор кодека : A_AC3
    Продолжительность : 43 м.
    Вид битрейта : Постоянный
    Битрейт : 384 Кбит/сек
    Каналы : 2 канала
    Расположение каналов : Front: L R
    Частота : 48, как колыбельная песня, 0 КГц
    Битовая глубина : 16 бит
    Метод сжатия : С потерями
    Задержка видео : 18 мс.
    Размер потока : 121 Мбайт (8%)
    Язык : English
    Default : Нет
    Forced : Нет


    Скриншоты для ознакомления




    Последователи/The Following (2015) WEB-DL [H.264/720p-LQ] (Сезон 3, серии 1-2 из 15) (LostFilm) (обновляемая)
    загрузка...
    Рейтинг →
     (голосов: 1, оценка 3/5, голосовать можно 1 раз )

    Другие торренты по теме:

  • Последователи (The Following) / (Сезон 1-2, серии 1-30 из 30) LostFilm (2013-2014) [MP4 | 1280x720] <WEB-DLRip H.264>
  • Последователи / The Following (2015) WEB-DLRip (сезон 3, серии 1 из 15) LostFilm (обновляемая) скачать через торрент бесплатно
  • Константин Нормаер | Последователи глубины (2016) [FB2]


    • Комментарии (0):

      Информация

      Информация

        Посетители, находящиеся в группе Гости, не могут оставлять комментарии в данной новости.

        ↓ Меню




        ↓ Опрос

        Вы добавили сайт в закладки?
        Да
        Нет


        Top 10 за месяц (Фильмы)