.
Авторизация | Регистрация
Хочешь лучшие торренты? Добавь свой email!
Добавить

Торрент скачать бесплатно

» » Сверхспособности / Сверхсилы / Powers (2015) WEBRip (сезон 1, серии 1 из 10) BaibaKo (обновляемая) скачать через торрент бесплатно




    Сверхспособности / Сверхсилы / Powers (2015) WEBRip (сезон 1, серии 1 из 10) BaibaKo (обновляемая) скачать через торрент бесплатно

    Опубликовал: Админ | Дата: 14-03-2015, 04:00 | Просмотров: 235

    Производство: США
    Жанр: фантастика, драма, криминал
    Перевод: Многоголосый закадровый, профессиональный -BaibaKo

    Автор перевода: vipere
    Озвучка: Anna_Smile, Юлия Котурбаш, Олекса Мельник и Владимир Курдов
    Монтаж: Павел Дежин
    Сэмпл
    Дата мировой премьеры: 10 марта 2015
    Режиссер: Дэвид Петрарка, Микаэл Саломон, Билл Иглз

    Актеры
    Шарлто Копли, Эдди Иззард, Мишель Форбс, Сьюзэн Хэйард, Ноа Тейлор, Логан Браунинг, Джастис Лик, Эндрю Сенсениг, Адам Годли, Филлип ДеВона и др.

    Описание фильма

    Сюжет сериала разворачивается в мире, где супергерои живут среди обычных людей. Сотрудники убойного отдела Кристиан Уокер и Дина Пилгрим занимаются защитой простых людей от преступников со сверхспособностями и расследуют дела, в которых замешаны эти супергерои.
    Продолжительность: ~00: 53: 00 серия
    Качество видео: WEBRip
    Видеокодек: XviD
    Формат: AVI
    Битрейт видео: ~1500 kb/s
    Размер кадра: 720х400 (16: 9)
    Аудио Rus: (MPEG Layer 3, 48, 0 kHz, 2 ch, 192 kb/s) - многоголосый закадровый
    Аудио Eng: (MPEG Layer 3, 48, 0 kHz, 2 ch, 192 kb/s) - оригинал
    Общее
    Полное имя : D: Сверхспособности (сезон любимого сериала 1) Powers (2015) WEBRip - BaibaKoPowers.s01e01.WEBRip.XviD.Rus.Eng.BaibaKo.tv.avi
    Формат : AVI
    Формат/Информация : Audio Video Interleave
    Размер файла : 724 Мбайт
    Продолжительность : 53 м.
    Общий поток : 1910 Кбит/сек
    Программа кодирования : VirtualDubMod 1.5.10.2 (build 2540/release)
    Библиотека кодирования : VirtualDubMod build 2540/release
    Видео
    Идентификатор : 0
    Формат : MPEG-4 Visual
    Профиль формата : Advanced Simple@L5
    Параметр BVOP формата : 2
    Параметр QPel формата : Нет
    Параметр GMC формата : Без точки перехода
    Параметр матрицы формата : Default (H.263)
    Идентификатор кодека : XVID
    Идентификатор кодека/Подсказка : XviD
    Продолжительность : 53 м.
    Битрейт : 1508 Кбит/сек
    Ширина : 720 пикселей
    Высота : 400 пикселей
    Соотношение сторон : 16: 9
    Частота кадров : 29, 970 кадров/сек
    Цветовое пространство : YUV
    Субдискретизация насыщенности : 4: 2: 0
    Битовая глубина : 8 бит
    Тип развёртки : Прогрессивная
    Метод сжатия : С потерями
    Бит/(Пиксели*Кадры) : 0.175
    Размер потока : 572 Мбайт (79%)
    Библиотека кодирования : XviD 1.2.1 (UTC 2008-12-04)
    Аудио #1
    Идентификатор : 1
    Формат : MPEG Audio
    Версия формата : Version 1
    Профиль формата : Layer 3
    Режим : Joint stereo
    Расширение режима : MS Stereo
    Идентификатор кодека : 55
    Идентификатор кодека/Подсказка : MP3
    Продолжительность : 53 м.
    Вид битрейта : Постоянный
    Битрейт : 192 Кбит/сек
    Каналы : 2 канала
    Частота : 48, 0 КГц
    Метод сжатия : С потерями
    Размер потока : 72, 8 Мбайт (10%)
    Выравнивание : Соединение по промежуткам
    Продолжительность промежутка : 33 мс. О таком странном сюжете не догадывалась даже Ольга Полякова. (1, 00 видеокадр)
    Время предзагрузки промежутка : 504 мс.
    Аудио #2
    Идентификатор : 2
    Формат : MPEG Audio
    Версия формата : Version 1
    Профиль формата : Layer 3
    Режим : Joint stereo
    Расширение режима : MS Stereo
    Идентификатор кодека : 55
    Идентификатор кодека/Подсказка : MP3
    Продолжительность : 53 м.
    Вид битрейта : Постоянный
    Битрейт : 192 Кбит/сек
    Каналы : 2 канала
    Частота : 48, 0 КГц
    Метод сжатия : С потерями
    Размер потока : 72, 8 Мбайт (10%)
    Выравнивание : Соединение по промежуткам
    Продолжительность промежутка : 33 мс. (1, 00 видеокадр)
    Время предзагрузки промежутка : 504 мс.
    Библиотека кодирования : LAME3.98.4


    Скриншоты для ознакомления




    Сверхспособности/Сверхсилы/Powers (2015) WEBRip (сезон 1, серии 1 из 10) BaibaKo (обновляемая)
    загрузка...
    Рейтинг →
     (голосов: 1, оценка 4/5, голосовать можно 1 раз )

    Другие торренты по теме:

  • Нераскрытые тайны. Как развить сверхспособности (2014) SATRip
  • Флоранс Серван-Шрейбер | 24 сверхспособности. Гениальность по-французски! (2015) [FB2]
  • Раскрывая мистические тайны. Сверхспособности (2016) SATRip
  • Сверхспособности / Сверхсилы / Powers (2016) WEBRip [H.264 / 720p-LQ] (сезон 2, серии 1 из 10) ColdFilm (обновляемая)
  • Сверхспособности / Сверхсилы / Powers (2016) WEBRip (сезон 2, серии 1-3 из 10) SunshineStduio (обновляемая)
  • Сверхспособности / Сверхсилы / Powers (2016) WEBRip [H.264 / 1080p-HQ] (сезон 2, серии 1-3 из 10) BaibaKo [60fps] (обновляемая)


    • Комментарии (0):

      Информация

      Информация

        Посетители, находящиеся в группе Гости, не могут оставлять комментарии в данной новости.

        ↓ Меню




        ↓ Опрос

        Вы добавили сайт в закладки?
        Да
        Нет


        Top 10 за месяц (Фильмы)