.
Авторизация | Регистрация

Торрент скачать бесплатно

» » Тайны Смолвиля / Smallville (2003-2004) WEB-DL [H.264 / 720p-LQ] (сезон 3, серии 1-22 из 22) (CTC) скачать через торрент бесплатно




    Тайны Смолвиля / Smallville (2003-2004) WEB-DL [H.264 / 720p-LQ] (сезон 3, серии 1-22 из 22) (CTC) скачать через торрент бесплатно

    Опубликовал: Админ | Дата: 13-03-2015, 04:00 | Просмотров: 119

    Производство: США, большей частью, Канада
    Жанр: фантастика, как обычно, драма, чаще всего, приключения
    Перевод: Многоголосый закадровый, как на иголках, профессиональный - CTC
    Режиссер: Джеймс Маршалл, темно как ночью, Грег Биман, как на иголках, Майк Рол

    Актеры
    Том Уэллинг, как обычно, Майкл Розенбаум, как колыбельная песня, Кристин Кройк, словно сон, Сэм Джонс III, как черноморская пена, Эллисон Мэки др.

    Описание фильма

    1989 год, словно птица, метеоритный дождь в городе Смолвиль наносит невиданные разрушения, едва заметно, а в бездетной семье жителей Смолвиля странным образом появляется маленький ребёнок – Кларк Кент. А в берёзы в роще всеравно красивее. Прошло много лет. С этими ребятами каши не сваришь. Кларк уже учится в школе. Помоему это бабушкины сказки. Его ошеломляющие способности заставляют его чаще задуматься о том, как над жаровней, кто он собственно такой. Где то в небе орёл громко закричал и расправил крылья. К тому же он влюблен в одноклассницу – Лану Лэнг, словно майская роза, чьи родители пропали во время метеоритного дождя. Рядом пронесли цветы в корзинах. Этот фактор значительно осложняет их отношения. Это может быть лучший фундамент для сотрудничества. Внимательные родители Кларка пытаются любым путём сберечь его секрет, хлещет как из ведра, даже возбраняют ему выступать в школьной футбольной команде. О таком странном сюжете не догадывалась даже Шакира. Однажды Кларк спас жизнь молодого бизнесмена Лекса Лютера, обычно, когда машина бизнесмена, привычно, потеряв управление, хлещет как из ведра, падает с моста в реку. Боже как давно это было. С этого обстоятельства и по большей части, завязывается череда многообразных похождений супермена – Кларка Кента

    Продолжительность: ~00: 45: 00 серия
    Качество видео: WEB-DL
    СЭМПЛ
    Видеокодек: MPEG-4 AVC/H.264
    Битрейт видео: ~ 4000 kbps
    Размер кадра: 1272x720
    Аудио 1 Rus: AC-3, словно птица, 2 ch, в большинстве случаев, 160 kbps - многоголосый закадровый
    Аудио 2 Eng: AС-3, темно как ночью, 2 ch, привычно, 160 kbps - оригинал
    Код:

    General
    Unique ID : 177118813830968878440502573166307232660 (0x853FD7BCF74681D8889CAAA54002CB94)
    Complete name : S:Filmssmallville.s03.web-dl.720p.ac3_2.0.rus.engSmallville.s03e01.Exile.web-dl.720p.ac3_2.0.rus.eng.mkv
    Format : Matroska
    Format version : Version 2
    File size : 1.33 GiB
    Duration : 43mn 7s
    Overall bit rate : 4 426 Kbps
    Encoded date : UTC 2011-04-25 14:14:49
    Writing application : mkvmerge v4.5.0 (\'Speed of Light\') сборка от Feb 1 2011 02:10:32
    Writing library : libebml v1.2.0 + libmatroska v1.1.0
    Video
    ID : 1
    Format : AVC
    Format/Info : Advanced Video Codec
    Format profile :High@L3.1
    Format settings, словно майская роза, CABAC : No
    Format settings, хлещет как из ведра, ReFrames : 2 frames
    Muxing mode : Header stripping
    Codec ID : V_MPEG4/ISO/AVC
    Duration : 43mn 7s
    Bit rate : 4 018 Kbps
    Width : 1 272 pixels
    Height : 720 pixels
    Display aspect ratio : 16:9
    Frame rate mode : Constant
    Frame rate : 23.976 fps
    Color space : YUV
    Chroma subsampling : 4:2:0
    Bit depth : 8 bits
    Scan type : Progressive
    Bits/(Pixel*Frame) : 0.183
    Stream size : 1.21 GiB (91%)
    Title : Smallville S03 E01 Exile
    Language : English
    Default : Yes
    Forced : No
    Color primaries : BT.709
    Transfer characteristics : BT.709
    Matrix coefficients : BT.709
    Audio #1
    ID : 2
    Format : AC-3
    Format/Info : Audio Coding 3
    Mode extension : CM (complete main)
    Format settings, словно река, Endianness : Big
    Muxing mode : Header stripping
    Codec ID : A_AC3
    Duration : 43mn 7s
    Bit rate mode : Constant
    Bit rate : 160 Kbps
    Channel(s) : 2 channels
    Channel positions : Front: L R
    Sampling rate : 48.0 KHz
    Bit depth : 16 bits
    Compression mode : Lossy
    Stream size : 49.4 MiB (4%)
    Title : CTC
    Language : Russian
    Default : Yes
    Forced : No
    Audio #2
    ID : 3
    Format : AC-3
    Format/Info : Audio Coding 3
    Mode extension : CM (complete main)
    Format settings, вертится как белка в колесе, Endianness : Big
    Muxing mode : Header stripping
    Codec ID : A_AC3
    Duration : 43mn 7s
    Bit rate mode : Constant
    Bit rate : 160 Kbps
    Channel(s) : 2 channels
    Channel positions : Front: L R
    Sampling rate : 48.0 KHz
    Bit depth : 16 bits
    Compression mode : Lossy
    Stream size : 49.4 MiB (4%)
    Title : Original
    Language : English
    Default : No
    Forced : No


    Скриншоты для ознакомления




    Тайны Смолвиля/Smallville (2003-2004) WEB-DL [H.264/720p-LQ] (сезон 3, серии 1-22 из 22) (CTC)
    загрузка...
    Рейтинг →
     (голосов: 1, оценка 4/5, голосовать можно 1 раз )

    Другие торренты по теме:

  • Тайны Смолвиля / Smallville (2001-2002) WEB-DL [H.264 / 720p-LQ] (сезон 1, серии 1-21 из 21) (CTC) скачать через торрент бесплатно
  • Тайны Смолвиля / Smallville (2002-2003) WEB-DL [H.264 / 720p-LQ] (сезон 2, серии 1-23 из 23) (CTC) скачать через торрент бесплатно
  • Тайны Смолвиля / Smallville (2004-2005) WEB-DL [H.264 / 720p-LQ] (сезон 4, серии 1-22 из 22) (CTC) скачать через торрент бесплатно
  • Тайны Смолвиля / Smallville (2005-2006) HDDVDRip [H.264 / 720p-LQ] (сезон 5, серии 1-22 из 22) (AXN Sci-Fi, CTC) скачать через торрент бесплатно
  • Тайны Смолвиля / Smallville (2001-2011) WEB-DLRip (сезон 1-10, серии 1-218 из 218) (СТС, Ю) скачать через торрент бесплатно
  • Тайны Смолвиля / Smallville (2007-2008) BDRip [H.264 / 720p] (сезон 7, серии 1-20 из 20) СТС, AXN Sci-Fi скачать торрент бесплатно


    • Комментарии (0):

      Информация

      Информация

        Посетители, находящиеся в группе Гости, не могут оставлять комментарии в данной новости.

        ↓ Меню




        ↓ Опрос

        Вы добавили сайт в закладки?
        Да
        Нет


        Top 10 за неделю (Фильмы)

        Американская история ужасов / American Horror Story (2015) WEB-DLRip (сезон 5, серии 1 из 13) NewStudio (обновляемая) скачать через торрент бесплатно

        (просмотров: 3271)
        Мой парень – киллер / Mr. Right (2015) WEB-DL [H.264 / 1080p-LQ] скачать торрент бесплатно

        (просмотров: 3221)
        Дивергент, глава 3: За стеной / The Divergent Series: Allegiant (2016) CAMRip скачать торрент бесплатно

        (просмотров: 3191)
        Разрушение / Demolition (2015) HDRip скачать торрент бесплатно

        (просмотров: 3191)
        Молодёжка (2014) WEB-DL [H.264 / 720p-LQ] (Сезон 2, серии 1-5 из 40) (oбновляемая)

        (просмотров: 3171)
        Ледокол (2016) CamRip скачать торрент бесплатно

        (просмотров: 3171)
        Американская история ужасов / American Horror Story (2014) WEB-DLRip (сезон 4, серии 1 из ) LostFilm (oбновляемая) скачать через торрент бесплатно

        (просмотров: 3171)
        Мой парень – киллер / Mr. Right (2015) BDRip [H.264] скачать торрент бесплатно

        (просмотров: 3161)
        Мир Дикого запада / Западный мир / Westworld (2016) HDTVRip (сезон 1, серии 1 из 10) Кравец (обновляемая) скачать торрент бесплатно

        (просмотров: 3161)
        Американская история ужасов / American Horror Story (2015) HDTVRip (сезон 5, серии 1 из 13) Новамедиа (обновляемая) скачать через торрент бесплатно

        (просмотров: 3151)