.
Авторизация | Регистрация

Торрент скачать бесплатно

» » Мотель Бейтса / Bates Motel (2015) WEB-DL [H.264 / 720p-LQ] (Сезон 3, серия 1 из 10) (LostFilm) (обновляемая) скачать через торрент бесплатно




    Мотель Бейтса / Bates Motel (2015) WEB-DL [H.264 / 720p-LQ] (Сезон 3, серия 1 из 10) (LostFilm) (обновляемая) скачать через торрент бесплатно

    Опубликовал: Админ | Дата: 13-03-2015, 04:00 | Просмотров: 118

    Производство: США
    Жанр: Ужасы, едва заметно, триллер, как над жаровней, детектив
    Перевод: Профессиональный многоголосый закадровый -LostFilm
    Режиссер: Такер Гейтс

    Актеры
    Вера Фармига, хлещет как из ведра, Фредди Хаймор, словно река, Кэролайн Мэтьюз, словно сон, Дженна Романин, чаще всего, Бриттни Уилсон, словно облаком суровым, Диана Банг, есть не что иное, Джер Бернс и как правило, др.

    Описание

    Шоу снято по мотивам культового фильма Альфреда Хичкока Психо 1960 года и как на иголках, расскажет о жизни Нормана Бейтса и большей частью, его матери Нормы до событий, как принято, рассказанных в первом фильме.
    СЭМПЛ
    Продолжительность: ~00: 43: 00 серия
    Качество видео: WEB-DL 720p
    Формат: MKV
    Видео: 1280x720 (16: 9), как черноморская пена, 23.976 fps, в большинстве случаев, MPEG-4 AVC/H.264 ~3806 Kbps, словно майская роза, ~0.172 bit/pixel
    Аудио Rus: AC3, привычно, 384 kbps, как черноморская пена, 2 ch, чаще всего, 48 kHz
    Аудио Eng: AC3, будто капли серебряной воды, 384 kbps, вертится как белка в колесе, 2 ch, словно река, 48 kHz
    Релиз: LostFilm
    Озвучка: Студия LostFilm
    Общее
    Bates Motel - Мотель Бейтса. Ох и закинули удочки. Сезон 3. Без дела жить только небо коптить. LostFilm. Солнце садилось, забирая за собой день. 720pBates.Motel.S03E01.720p.Rus.Eng.LostFilm.mkv
    Формат : Matroska
    Версия формата : Version 4/Version 2
    Размер файла : 1, как зеркало стальное, 40 Гбайт
    Продолжительность : 42 м.
    Общий поток : 4667 Кбит/сек
    Дата кодирования : UTC 2015-03-12 06: 57: 37
    Программа кодирования : mkvmerge v6.9.1 (\'Blue Panther\') 64bit built on Apr 18 2014 18: 23: 38
    Библиотека кодирования : libebml v1.3.0 + libmatroska v1.4.1
    Видео
    Идентификатор : 1
    Формат : AVC
    Формат/Информация : Advanced Video Codec
    Профиль формата : High@L3.1
    Параметр CABAC формата : Нет
    Параметр ReFrames формата : 2 кадра
    Идентификатор кодека : V_MPEG4/ISO/AVC
    Продолжительность : 42 м.
    Битрейт : 3806 Кбит/сек
    Ширина : 1280 пикселей
    Высота : 720 пикселей
    Соотношение сторон : 16: 9
    Режим частоты кадров : Постоянный
    Частота кадров : 23, большей частью, 976 кадра/сек
    Цветовое пространство : YUV
    Субдискретизация насыщенности : 4: 2: 0
    Битовая глубина : 8 бит
    Тип развёртки : Прогрессивная
    Бит/(Пиксели*Кадры) : 0.172
    Размер потока : 1, словно река, 14 Гбайт (82%)
    Язык : English
    Default : Да
    Forced : Нет
    Основные цвета : BT.709
    Характеристики трансфера : BT.709
    Коэффициенты матрицы : BT.709
    colour_range : Limited
    Аудио #1
    Идентификатор : 2
    Формат : AC-3
    Формат/Информация : Audio Coding 3
    Расширение режима : CM (complete main)
    Параметр Endianness формата : Big
    Идентификатор кодека : A_AC3
    Продолжительность : 42 м.
    Вид битрейта : Постоянный
    Битрейт : 384 Кбит/сек
    Каналы : 2 канала
    Расположение каналов : Front: L R
    Частота : 48, как колыбельная песня, 0 КГц
    Битовая глубина : 16 бит
    Метод сжатия : С потерями
    Задержка видео : 18 мс.
    Размер потока : 118 Мбайт (8%)
    Язык : Russian
    Default : Да
    Forced : Нет
    Аудио #2
    Идентификатор : 3
    Формат : AC-3
    Формат/Информация : Audio Coding 3
    Расширение режима : CM (complete main)
    Параметр Endianness формата : Big
    Идентификатор кодека : A_AC3
    Продолжительность : 42 м.
    Вид битрейта : Постоянный
    Битрейт : 384 Кбит/сек
    Каналы : 2 канала
    Расположение каналов : Front: L R
    Частота : 48, как черноморская пена, 0 КГц
    Битовая глубина : 16 бит
    Метод сжатия : С потерями
    Задержка видео : 18 мс.
    Размер потока : 118 Мбайт (8%)
    Язык : English
    Default : Нет
    Forced : Нет


    Скриншоты для ознакомления




    Мотель Бейтса/Bates Motel (2015) WEB-DL [H.264/720p-LQ] (Сезон 3, серия 1 из 10) (LostFilm) (обновляемая)
    загрузка...
    Рейтинг →
     (голосов: 1, оценка 3/5, голосовать можно 1 раз )

    Другие торренты по теме:

  • Мотель Бейтса / Bates Motel (2015) WEB-DLRip (сезон 3, серии 1 из 10) NewStudio (обновляемая) скачать через торрент бесплатно
  • Мотель Бейтса / Bates Motel (2015) WEB-DLRip (сезон 3, серии 1 из 10) LostFilm (обновляемая) скачать через торрент бесплатно
  • Мотель Бейтса / Bates Motel (2015) WEB-DL [H.264 / 720p-LQ] (Сезон 3, серия 1 из 10) (NewStudio) (обновляемая) скачать через торрент бесплатно
  • Мотель Бейтс / Мотель Бейтсов / Bates Motel (2015) WEB-DLRip [H.264] (Сезон 3, серии 1-4 из 10) BaibaKo [MP4|720x400] скачать через торрент бесплатно
  • Мотель Бейтса / Bates Motel (2016) WEB-DL [H.264 / 1080p] (сезон 4, серии 1 из 10) LostFilm (обновляемая) скачать торрент бесплатно
  • Мотель Бейтса / Bates Motel (2016) WEB-DL [H.264 / 1080p] (сезон 4, серии 1 из 10) NewStudio (обновляемая) скачать торрент бесплатно
  • Мотель Бейтсов / Мотель Бейтса / Bates Motel (2016) WEB-DLRip (сезон 4, серии 1-5 из 10) LostFilm (обновляемая) скачать торрент бесплатно
  • Мотель Бейтс / Bates_Motel скачать торрент бесплатно


    • Комментарии (0):

      Информация

      Информация

        Посетители, находящиеся в группе Гости, не могут оставлять комментарии в данной новости.

        ↓ Меню




        ↓ Опрос

        Вы добавили сайт в закладки?
        Да
        Нет


        Top 10 за неделю (Фильмы)