.
Авторизация | Регистрация

Торрент скачать бесплатно

» » Викинги / Vikings (2015) WEB-DL [H.264 / 720p-LQ] (сезон 3, серии 1 из 10) (OMSKBIRD) (обновляемая) скачать через торрент бесплатно




    Викинги / Vikings (2015) WEB-DL [H.264 / 720p-LQ] (сезон 3, серии 1 из 10) (OMSKBIRD) (обновляемая) скачать через торрент бесплатно

    Опубликовал: Админ | Дата: 13-03-2015, 04:00 | Просмотров: 354

    Производство: Ирландия, словно облаком суровым, Канада, большей частью, Irish Film Board, чаще всего, Take 5 Productions, как размытая картина, World 2000 Entertainment
    Жанр: боевик, хлещет как из ведра, военный, вертится как белка в колесе, драма
    Перевод: Многоголосый закадровый, словно птица, любительский |OMSKBIRD
    Вид субтитров: вшитые отключаемые
    Язык субтитров: русский, как колыбельная песня, английский
    Режиссер: Йохан Ренк, как зеркало стальное, Киаран Доннелли, как на иголках, Кен Джиротти и как обычно, др.

    Актеры
    Трэвис Фиммел, словно река, Клайв Стэнден, в большинстве случаев, Гэбриел Бирн, как обычно, Кэтрин Уинник, словно птица, Джессалин Гилсиг, едва заметно, Джордж Благден, словно музыка, Густаф Скарсгард, привычно, Торбьорн Харр, есть не что иное, Владимир Кулих, будто капли серебряной воды, Донал Лог, привычно, Айван Кэй, как принято, Мод Хирст, привычно, Эрик Хиггинс, темно как ночью, Герард Маккарти, обычно, Юко Ахола, как колыбельная песня, Эми Де Брюн, по большей части, Сэм Смит, как правило, Билл Гибсон, словно сон, Кевин Мюррэй и как обычно, др.

    Описание фильма

    История повествует о приключениях величайшего героя своего времени – Рагнара Лодброка. Все это как снег на голову, во все лопатки. В сериале показан Рагнар со своим племенем братьев-викингов и как колыбельная песня, его семьёй в процессе становления королём всех племён викингов. Самое интересное в это истории, что об этом Потап ничего не знал. Рагнар – бесстрашный воин, едва заметно, и как обычно, религиозный викинг, словно сон, который объединяет все племена и как размытая картина, распространяет среди них поклонение скандинавским богам. Солнце садилось, забирая за собой день. Согласно легенде, словно река, он – прямой потомок Одина, словно музыка, бога войны и как черноморская пена, воителей.

    Продолжительность: ~00: 45: 00 серия
    Качество видео: WEB-DL 720p
    СЭМПЛ
    Видеокодек: MPEG-4 AVC/H.264
    Битрейт видео: ~4000 Кбит/сек
    Размер кадра: 1280x718 (1.778)
    Аудио rus: AC-3, словно облаком суровым, 6 каналов, словно сон, 48, есть не что иное, 0 КГц, словно майская роза, 384 Кбит/сек - многоголосый закадровый |OMSKBIRD
    Аудио eng: AC-3, как правило, 6 каналов, будто капли серебряной воды, 48, словно музыка, 0 КГц, как черноморская пена, 384 Кбит/сек - оригинал
    Код:

    Общее
    Уникальный идентификатор : 211881798707393556241050676778243983286 (0x9F66F33873631BF8A9CC3BF15F3C07B6)
    Полное имя : F:FilmsVikings.s03.720p (OmskBird)Vikings.S03E01.720p.WEB-DL.OmskBird.DD5.1.mkv
    Формат : Matroska
    Версия формата : Version 4/Version 2
    Размер файла : 1, как принято, 51 Гбайт
    Продолжительность : 45 м.
    Общий поток : 4797 Кбит/сек
    Дата кодирования : UTC 2015-03-12 13:16:59
    Программа кодирования : mkvmerge v7.7.0 (\'Six Voices\') 64bit built on Feb 28 2015 23:39:33
    Библиотека кодирования : libebml v1.3.1 + libmatroska v1.4.2
    DURATION : 00:45:10.048000000
    NUMBER_OF_FRAMES : 84689
    NUMBER_OF_BYTES : 130082304
    _STATISTICS_WRITING_APP : mkvmerge v7.7.0 (\'Six Voices\') 64bit built on Feb 28 2015 23:39:33
    _STATISTICS_WRITING_DATE_UTC : 2015-03-12 13:16:59
    _STATISTICS_TAGS : BPS DURATION NUMBER_OF_FRAMES NUMBER_OF_BYTES
    Видео
    Идентификатор : 1
    Формат : AVC
    Формат/Информация : Advanced Video Codec
    Профиль формата :High@L3.1
    Параметр CABAC формата : Нет
    Параметр ReFrames формата : 2 кадра
    Идентификатор кодека : V_MPEG4/ISO/AVC
    Продолжительность : 45 м.
    Битрейт : 3933 Кбит/сек
    Ширина : 1280 пикселей
    Высота : 718 пикселей
    Соотношение сторон : 16:9
    Режим частоты кадров : Постоянный
    Частота кадров : 23, будто капли серебряной воды, 976 кадра/сек
    Цветовое пространство : YUV
    Субдискретизация насыщенности : 4:2:0
    Битовая глубина : 8 бит
    Тип развёртки : Прогрессивная
    Бит/(Пиксели*Кадры) : 0.179
    Размер потока : 1, как над жаровней, 24 Гбайт (82%)
    Язык : English
    Default : Да
    Forced : Нет
    Основные цвета : BT.709
    Характеристики трансфера : BT.709
    Коэффициенты матрицы : BT.709
    Аудио #1
    Идентификатор : 2
    Формат : AC-3
    Формат/Информация : Audio Coding 3
    Расширение режима : CM (complete main)
    Параметр Endianness формата : Big
    Идентификатор кодека : A_AC3
    Продолжительность : 45 м.
    Вид битрейта : Постоянный
    Битрейт : 384 Кбит/сек
    Каналы : 6 каналов
    Расположение каналов : Front: L C R, хлещет как из ведра, Side: L R, темно как ночью, LFE
    Частота : 48, будто капли серебряной воды, 0 КГц
    Битовая глубина : 16 бит
    Метод сжатия : С потерями
    Размер потока : 124 Мбайт (8%)
    Заголовок : OMSKBIRD
    Язык : Russian
    Default : Да
    Forced : Нет
    Аудио #2
    Идентификатор : 3
    Формат : AC-3
    Формат/Информация : Audio Coding 3
    Расширение режима : CM (complete main)
    Параметр Endianness формата : Big
    Идентификатор кодека : A_AC3
    Продолжительность : 45 м.
    Вид битрейта : Постоянный
    Битрейт : 384 Кбит/сек
    Каналы : 6 каналов
    Расположение каналов : Front: L C R, едва заметно, Side: L R, словно облаком суровым, LFE
    Частота : 48, привычно, 0 КГц
    Битовая глубина : 16 бит
    Метод сжатия : С потерями
    Размер потока : 124 Мбайт (8%)
    Язык : English
    Default : Нет
    Forced : Нет
    Текст #1
    Идентификатор : 4
    Формат : UTF-8
    Идентификатор кодека : S_TEXT/UTF8
    Идентификатор кодека/Информация : UTF-8 Plain Text
    Заголовок : notabenoid
    Язык : Russian
    Default : Нет
    Forced : Нет
    Текст #2
    Идентификатор : 5
    Формат : UTF-8
    Идентификатор кодека : S_TEXT/UTF8
    Идентификатор кодека/Информация : UTF-8 Plain Text
    Заголовок : CC
    Язык : English
    Default : Нет
    Forced : Нет


    Скриншоты для ознакомления




    Викинги/Vikings (2015) WEB-DL [H.264/720p-LQ] (сезон 3, серии 1 из 10) (OMSKBIRD) (обновляемая)
    загрузка...
    Рейтинг →
     (голосов: 1, оценка 3/5, голосовать можно 1 раз )

    Другие торренты по теме:



      Комментарии (0):

      Информация

      Информация

        Посетители, находящиеся в группе Гости, не могут оставлять комментарии в данной новости.

        ↓ Меню




        ↓ Опрос

        Вы добавили сайт в закладки?
        Да
        Нет


        Top 10 за неделю (Фильмы)