.
Авторизация | Регистрация
Хочешь лучшие торренты? Добавь свой email!
Добавить

Торрент скачать бесплатно

» » Тайны Смолвиля / Smallville (2004-2005) WEB-DL [H.264 / 720p-LQ] (сезон 4, серии 1-22 из 22) (CTC) скачать через торрент бесплатно




    Тайны Смолвиля / Smallville (2004-2005) WEB-DL [H.264 / 720p-LQ] (сезон 4, серии 1-22 из 22) (CTC) скачать через торрент бесплатно

    Опубликовал: Админ | Дата: 13-03-2015, 04:00 | Просмотров: 101

    Производство: США, Канада
    Жанр: фантастика, драма, приключения
    Перевод: Многоголосый закадровый, профессиональный - CTC
    Режиссер: Джеймс Маршалл, Грег Биман, Майк Рол

    Актеры
    Том Уэллинг, Майкл Розенбаум, Кристин Кройк, Сэм Джонс III, Эллисон Мэки др.

    Описание фильма

    1989 год, метеоритный дождь в городе Смолвиль наносит невиданные разрушения, а в бездетной семье жителей Смолвиля странным образом появляется маленький ребёнок – Кларк Кент. Прошло много лет. О таком странном сюжете не догадывалась даже Светлана Лобода. Кларк уже учится в школе. Его ошеломляющие способности заставляют его чаще задуматься о том, кто он собственно такой. К тому же он влюблен в одноклассницу – Лану Лэнг, чьи родители пропали во время метеоритного дождя. Этот фактор значительно осложняет их отношения. Внимательные родители Кларка пытаются любым путём сберечь его секрет, даже возбраняют ему выступать в школьной футбольной команде. Однажды Кларк спас жизнь молодого бизнесмена Лекса Лютера, когда машина бизнесмена, потеряв управление, падает с моста в реку. С этого обстоятельства и завязывается череда многообразных похождений супермена – Кларка Кента

    Продолжительность: ~00: 45: 00 серия
    Качество видео: WEB-DL
    СЭМПЛ
    Видеокодек: MPEG-4 AVC/H.264
    Битрейт видео: ~3 800 kbps
    Размер кадра: 1280x718
    Аудио 1 Rus: AC-3, 2 ch, 160 kbps - многоголосый закадровый
    Аудио 2 Eng: AС-3, 2 ch, 160 kbps - оригинал
    Код:

    General
    Unique ID : 185707473385217943943582192353681314102 (0x8BB5F558F9BBA9AFB148FE85B9DB9136)
    Complete name : S:Filmssmallville.s04.web-dl.720p.ac3_2.0.rus.engsmallville.s04e01.Crusade.web-dl.720p.ac3_2.0.rus.eng.mkv
    Format : Matroska
    Format version : Version 2
    File size : 1.30 GiB
    Duration : 43mn 45s
    Overall bit rate : 4 257 Kbps
    Encoded date : UTC 2011-04-25 15:17:35
    Writing application : mkvmerge v4.5.0 (\'Speed of Light\') сборка от Feb 1 2011 02:10:32
    Writing library : libebml v1.2.0 + libmatroska v1.1.0
    Video
    ID : 1
    Format : AVC
    Format/Info : Advanced Video Codec
    Format profile :High@L3.1
    Format settings, CABAC : No
    Format settings, ReFrames : 2 frames
    Muxing mode : Header stripping
    Codec ID : V_MPEG4/ISO/AVC
    Duration : 43mn 45s
    Bit rate : 3 853 Kbps
    Width : 1 280 pixels
    Height : 718 pixels
    Display aspect ratio : 16:9
    Frame rate mode : Constant
    Frame rate : 23.976 fps
    Color space : YUV
    Chroma subsampling : 4:2:0
    Bit depth : 8 bits
    Scan type : Progressive
    Bits/(Pixel*Frame) : 0.175
    Stream size : 1.18 GiB (90%)
    Title : Smallville S04 E01 Crusade
    Language : English
    Default : Yes
    Forced : No
    Color primaries : BT.709
    Transfer characteristics : BT.709
    Matrix coefficients : BT.709
    Audio #1
    ID : 2
    Format : AC-3
    Format/Info : Audio Coding 3
    Mode extension : CM (complete main)
    Format settings, Endianness : Big
    Muxing mode : Header stripping
    Codec ID : A_AC3
    Duration : 43mn 45s
    Bit rate mode : Constant
    Bit rate : 160 Kbps
    Channel(s) : 2 channels
    Channel positions : Front: L R
    Sampling rate : 48.0 KHz
    Bit depth : 16 bits
    Compression mode : Lossy
    Stream size : 50.1 MiB (4%)
    Title : CTC
    Language : Russian
    Default : Yes
    Forced : No
    Audio #2
    ID : 3
    Format : AC-3
    Format/Info : Audio Coding 3
    Mode extension : CM (complete main)
    Format settings, Endianness : Big
    Muxing mode : Header stripping
    Codec ID : A_AC3
    Duration : 43mn 45s
    Bit rate mode : Constant
    Bit rate : 160 Kbps
    Channel(s) : 2 channels
    Channel positions : Front: L R
    Sampling rate : 48.0 KHz
    Bit depth : 16 bits
    Compression mode : Lossy
    Stream size : 50.1 MiB (4%)
    Title : Original
    Language : English
    Default : No
    Forced : No


    Скриншоты для ознакомления




    Тайны Смолвиля/Smallville (2004-2005) WEB-DL [H.264/720p-LQ] (сезон 4, серии 1-22 из 22) (CTC)
    загрузка...
    Рейтинг →
     (голосов: 1, оценка 4/5, голосовать можно 1 раз )

    Другие торренты по теме:

  • Тайны Смолвиля / Smallville (2001-2002) WEB-DL [H.264 / 720p-LQ] (сезон 1, серии 1-21 из 21) (CTC) скачать через торрент бесплатно
  • Тайны Смолвиля / Smallville (2002-2003) WEB-DL [H.264 / 720p-LQ] (сезон 2, серии 1-23 из 23) (CTC) скачать через торрент бесплатно
  • Тайны Смолвиля / Smallville (2003-2004) WEB-DL [H.264 / 720p-LQ] (сезон 3, серии 1-22 из 22) (CTC) скачать через торрент бесплатно
  • Тайны Смолвиля / Smallville (2005-2006) HDDVDRip [H.264 / 720p-LQ] (сезон 5, серии 1-22 из 22) (AXN Sci-Fi, CTC) скачать через торрент бесплатно
  • Тайны Смолвиля / Smallville (2001-2011) WEB-DLRip (сезон 1-10, серии 1-218 из 218) (СТС, Ю) скачать через торрент бесплатно
  • Тайны Смолвиля / Smallville (2007-2008) BDRip [H.264 / 720p] (сезон 7, серии 1-20 из 20) СТС, AXN Sci-Fi


    • Комментарии (0):

      Информация

      Информация

        Посетители, находящиеся в группе Гости, не могут оставлять комментарии в данной новости.

        ↓ Меню




        ↓ Опрос

        Вы добавили сайт в закладки?
        Да
        Нет


        Top 10 за месяц (Фильмы)